المساعد الشخصي الرقمي

مشاهدة النسخة كاملة : [شرح] قطع مشهد محدد من ال Blu-Ray



HAMANY
30-03-2011, 04:29 PM
بسم الله الرحمن الرحيم



فوائد التقطيع:

أحيانا تبي تحذف احد الأفلام من عندك لكنك تتردد بسبب مقطع واحد او كذا مقطع في الفلم عاجبك, بهالطريقة تقدر تاخذ المقاطع الي تبيها وتحذف الفلم.
أغلبنا عندنا مقاطع معينة لإختبار المسارح المنزلية, بهالطريقة أسهل بدل ماتشغل الفلم من اول.
افرض انك بغيت تجرب المسرح في المحل قبل لا تشتريه, تشيل معاك USB صغير افضل من هاردسك
بإذن الله مستقبلا راح افتح موضوع برفع فيه مقاطع مميزة في الصوت من ناحية التوزيع او ال bass.
ملاحضة: الطريقة الي راح أشرحها ماراح تأثر على جودة الصورة ولا الصوت, الفلم مثل ماهو مجرد تاخذ جزء منه.


--------------------------------------------------------------


البرنامج المستعمل:

tsMuxeR (http://www.videohelp.com/download/tsMuxeR_1.10.6.zip)
Source (http://www.videohelp.com/tools/tsMuxeR)


--------------------------------------------------------------


صيغ الفيديو المقبولة (codec):

H.264
Microsoft VC-1
MPEG-2
صيغ الصوت المقبولة:

AAC
(+AC3 / E-AC3(DD
(Dolby True HD (for streams with AC3 core only
DTS/ DTS-HD
LPCM
اذا تبي تعدل على ملف فيه TrueHD .. لازم ال TrueHD يحتوي على ال AC3 core..
بمعنى آخر. ما ينفع الا ال m2ts للأفلام الي داخلها TrueHD



--------------------------------------------------------------


بسم الله, ونبدأ

راح تكون التجربة على فلم Avatar Extended Remux


اولا الواجهه ..

http://img26.imageshack.us/img26/5415/195bg.jpg (http://img26.imageshack.us/i/195bg.jpg/)

اسحب الفلم وارمه في البرنامج او عن طريق زر ال add ..


--------------------------------------------------------------


بعد ما يفتح الفلم هذي الي راح تحصله تقريبا

http://img692.imageshack.us/img692/3439/196ob.jpg (http://img692.imageshack.us/i/196ob.jpg/)

1. الفيديو بكودك H.264
2. تراك الصوت DTS-MA ( او DTS-HD او DTSHD-MA )
3. اختر واحد من هالصيغتين M2TS او TS
4. مكان الحفظ اتركه مثل ماهو.


--------------------------------------------------------------


بعدها من ال tabs الي فوق اختر Spilt and Cut

http://img23.imageshack.us/img23/9103/197ls.jpg (http://img23.imageshack.us/i/197ls.jpg/)

ومثل الصوة حط صح في مربع ال Enable Cutting


--------------------------------------------------------------


راح نقص او مقطع في الغابة ..
ولا تنسى ان هالنسخة Extended .. اذا عندك العادية التوقيت يختلف

هذي البداية (اضغط على الصورة عشان تجوف التوقيت)

[/URL]http://img841.imageshack.us/img841/9068/198uq.jpg (http://i.imgur.com/R1sEP.jpg)

التوقيت : 32:57
32 دقيقة
57 ثانية

في هالحالة راح نضطر نحسب التوقيت بالثواني.

( 32 ضرب 60 ) + 57 = 1977 ثانية


والنهاية (اضغط على الصورة عشان تجوف التوقيت)

[URL="http://img405.imageshack.us/i/199mp.jpg/"]http://img405.imageshack.us/img405/1038/199mp.jpg (http://i.imgur.com/PWkoo.jpg)

37:13

37 دقيقة
13 ثانية

(37 ضرب 60 ) + 13 = 2233 ثانية

ونحط رقمين البداية و النهاية مثل مافي الصورة ,, ولا تنسى تختار s رمزا لل second ثانية

http://img193.imageshack.us/img193/6367/200et.jpg (http://img193.imageshack.us/i/200et.jpg/)


--------------------------------------------------------------


في حالة اذا الثواني 00 ,, فماعليك الا كتابة رقم الدقائق .. طبعا تختار min
واذا كان المقطع بعد الساعة .. ناخذ مثال

1:30:15

ساعة = 60 دقيقة
30 دقيقة
15 ثانية

بهالطريقة نحسبها:

( 60 + 30 ) ضرب 60 + 15 = 5415 ثانية


--------------------------------------------------------------


بعد مانخلص من الثواني نضغط Start muxing

http://img148.imageshack.us/img148/4537/201gg.jpg (http://img148.imageshack.us/i/201gg.jpg/)


استغرق التحويل عندي 3 دقائق ,, عادة مايتجاوز الدقيقة بس عشان المصدر الي استعملناه وضوحة عالي.


--------------------------------------------------------------


في النهاية حصلنا مقطع مدته 4 دقائق وحجمه 1GB بعد ماكان 35GB





General
Complete name : Avatar_new.ts
Format : MPEG-TS
File size : 1.09 GiB
Duration : 4mn 15s
Overall bit rate : 36.8 Mbps
Maximum Overall bit rate : 35.5 Mbps



Video
ID : 4113 (0x1011)
Menu ID : 1 (0x1)
Format : AVC
Format/Info : Advanced Video Codec
Format profile : High@L4.1
Duration : 4mn 15s
Bit rate mode : Variable
Bit rate : 30.9 Mbps
Maximum bit rate : 40.0 Mbps
Width : 1 920 pixels
Height : 1 080 pixels
Display aspect ratio : 16:9
Frame rate : 23.976 fps
Color space : YUV
Chroma subsampling : 4:2:0
Bit depth : 8 bits
Scan type : Progressive
Bits/(Pixel*Frame) : 0.622
Stream size : 941 MiB (84%)



Audio
Format : DTS
Format/Info : Digital Theater Systems
Format profile : MA / Core
Muxing mode : Stream extension
Codec ID : 134
Duration : 4mn 15s
Bit rate mode : Variable
Bit rate : 4 027 Kbps / 1 510 Kbps
Channel(s) : 6 channels
Channel positions : Front: L C R, Side: L R, LFE
Sampling rate : 48.0 KHz
Bit depth : 24 bits
Compression mode : Lossless / Lossy
Delay relative to video : -159ms
Language : English






--------------------------------------------------------------


ان شاء الله الشرح كان واضح واهم شيء استفدتو من الطريقة :d
واي استفسار انا موجود :34:



(Cut Project Backup (2MB (http://www.mediafire.com/?rhja98c53jnrlpc)

alammari
30-03-2011, 06:13 PM
يعطيك العافية ع الشرح الدقيقة وصراحة هدي الحركة تفك ازمات واحد من الشباب كان عنده dvd و ما في الى مقاطع خاصة ب dts, dolby & Thx بس ماكان ممتاز لانه في الاخير دعائي مو زي يكون مقطع حماسي من فلم مزبوط

الف شكر اخوي HAMANY

BAROOON
30-03-2011, 08:07 PM
ممتاز ذا البرنامج :73: كان ودي بشي زي كذا اقص المقاطع الي تعجبني واحطها في مجلد واحد .
واقعد اجرب الاصوات الي ابي .
صج مشوار تروح تدور الفلم الي تبيه ودور اي مقطع .
اول ما افضى راح اجربة واعطيك استفساراتي :60: .

mz_milan
30-03-2011, 08:10 PM
HAMANY (http://www.avarab.com/vb/member.php?u=7)

انت انسان مبدع اخي العزيز وموضوع مبدع زيك وتستاهل كل خير وراح اجرب الطريقه الي قلتها لانها مفيده جداً

بالتوفيق لك والى الامام ياغالي

وفق الله الجميع يارب

HAMANY
30-03-2011, 08:13 PM
يعطيك العافية ع الشرح الدقيقة وصراحة هدي الحركة تفك ازمات واحد من الشباب كان عنده dvd و ما في الى مقاطع خاصة ب dts, dolby & Thx بس ماكان ممتاز لانه في الاخير دعائي مو زي يكون مقطع حماسي من فلم مزبوط

الف شكر اخوي HAMANY


ولا يهمك اخوي :)



ممتاز ذا البرنامج كان ودي بشي زي كذا اقص المقاطع الي تعجبني واحطها في مجلد واحد .
واقعد اجرب الاصوات الي ابي .
صج مشوار تروح تدور الفلم الي تبيه ودور اي مقطع .
اول ما افضى راح اجربة واعطيك استفساراتي .


خخخ على الأقل ترتاح بعدين ..
جوف هالموضوع محدد بعض المقاطع الممتازة في الرد الثاني
http://www.avarab.com/vb/showthread.php?t=52

عندي مجلد متروس مقاطع سويتها بنفسي :d
ان شاء الله بفتح موضوع خاص وبرفع الي اقدر عليه

همتكم :)





HAMANY

انت انسان مبدع اخي العزيز وموضوع مبدع زيك وتستاهل كل خير وراح اجرب الطريقه الي قلتها لانها مفيده جداً
بالتوفيق لك والى الامام ياغالي
وفق الله الجميع يارب


حاضرين افا عليك :)
ان شاء الله نفيد ونستفيد

اجمعين يارب

حافظ الود
30-03-2011, 09:29 PM
مبدع ما شاء الله عليك

بالفعل هناك مقاطع يحتاج الشخص ان يحتفظ بها

تحياتي ,,,

F H D
30-03-2011, 09:36 PM
يسلمك ربي يا اخوي HAMANY
أبدعت والله في الطرح و في عمل الشرح
موضوع مفيد و رائع جدا تستاهل عليه 5 نجمات و معها هالوردة :11:

HAMANY
31-03-2011, 08:06 PM
مبدع ما شاء الله عليك
بالفعل هناك مقاطع يحتاج الشخص ان يحتفظ بها
تحياتي ,,,

جزاك الله الف خير ,,
حاضرين لكم


يسلمك ربي يا اخوي HAMANY
أبدعت والله في الطرح و في عمل الشرح
موضوع مفيد و رائع جدا تستاهل عليه 5 نجمات و معها هالوردة :11:

تسلم اخوي ,, من ذوقك

mks_95
01-04-2011, 06:27 PM
والله انك خطير..

طيب الحين دام اني من أول ابغى اعمل مقاطع فيديو وفيها لقطات مقتبسة من أفلام فهذي الطريقة تعتبر ممتازة بالبداية.. لكن هل تتوقع انها نفس الطريقة اللي قنوات الافلام يقتصون مشاهد معينة من افلام كثيرة أو ردود لممثلين عمالقة, أو فيه طريقة مختصرة نوعا ما لدمج كذا مقطع أنا قاصهم بطريقتك وحبيت أضيفهم كفلم واحد مدته دقيقة مثلا..

HAMANY
01-04-2011, 10:36 PM
والله انك خطير..

طيب الحين دام اني من أول ابغى اعمل مقاطع فيديو وفيها لقطات مقتبسة من أفلام فهذي الطريقة تعتبر ممتازة بالبداية.. لكن هل تتوقع انها نفس الطريقة اللي قنوات الافلام يقتصون مشاهد معينة من افلام كثيرة أو ردود لممثلين عمالقة, أو فيه طريقة مختصرة نوعا ما لدمج كذا مقطع أنا قاصهم بطريقتك وحبيت أضيفهم كفلم واحد مدته دقيقة مثلا..

يا هلا ب mks

القنوات الفضائية تستعمل برامج خاصة لهم عشان التقطيع و العرض ،، ما اعرف الطريقة بالضبط لكنها مشابها لبرامج ال Video Maker .. مثل Adobe Premier و Sony Vegas وغيرهم .. وهذي البرامج اسهل للقص و للدمج.
لكن المشكله صعب تحافظ على جودة الصوت والصورة لأن الطريقة الي شرحتها عباره عن Demux ,, وال video maker يستعمل ال Encoding ..
القنوات مايحتاجون عمل (convert (re-endoce للفلم او للمقاطع ,, ممكن يشغلونهم من البرنامج نفسه (صعب اشرح هالنقطة)

اذا قاص الفلم بطريقتي فتقدر تدمج المقاطع بال Re-encoding ومثل ما ذكرت انها راح تأثر على الجودة ,, اذا تبي الجودة مثل ماهي, في حل اصعب شوي
اولا لازم تصنع ملف playlist للمقاطع الي تبي تدمجها كأنك تسوي قرص بلوري جديد ,, في هالحالة تقدر تستعمل برنامج Sonic Scenarist BD الي تستعملة بعض شركات الأفلام لصنع قرص البلوري من البداية
وبعد ماتصنع ال playlist للمقاطع تقدر تسويهم join في ملف واحد ts او m2ts مثل الشرح الي فوق لكن بشوية حركات زيادة :)

ما اعطيك رد أخير .. راح ابحث زيادة عن الطريقة الي تكلمت عنها وان شاء الله لي رجعة هنا :)
وشكرا

gatsu
03-04-2011, 10:29 PM
شكرا عزيزي على الطرح توني قبل كم يم افكر كيف اخذ مقاطع وبالصدفة قاعد ادخل على مواضيع المنتدى وشفت موضوعك سؤال كيف اخذ صورة من مقطع فيلم BR اذا عندك فكرة عن البرنامج الي يساعدني في ها الشي.

HAMANY
04-04-2011, 01:38 AM
شكرا عزيزي على الطرح توني قبل كم يم افكر كيف اخذ مقاطع وبالصدفة قاعد ادخل على مواضيع المنتدى وشفت موضوعك سؤال كيف اخذ صورة من مقطع فيلم BR اذا عندك فكرة عن البرنامج الي يساعدني في ها الشي.

ولايهمك اخوي,,

تقدر تستعمل زر ال Print Screen الموجود في الكيبورد .. لكن اذ تبي صورة بوضوح ال Frame الأصلي لازم تستعمل اي برنامج يحلل الفريمات .. مثل

من برنامج MPC اضغط Alt + i .. واحفظ الصورة ب bmp

VirtualDubMod
Open file -> Go to frame -> Video -> Snapshot source frame

Avisynth

وتقدر تستعمل ال WinDVD ,, بس ماقط جربته

وال FRAPS فيه حاصية التسجيل و ال Capture

اذا ماعرفت تستعملهم خبرني بشرح لك :)

TrUTh81
04-04-2011, 08:18 AM
ياخي انت رهيب ماشاء الله عليك يا حمني
موضوع مفيد ورائع

الـ ع ـآشــ ق
22-04-2011, 01:10 PM
الف شكر على الشرح الجميل
بارك الله فيك

صحيح البرنامج الصغير ده فعال بقوه وهو اخوه الثاني الي يشبه حق الـ mkv

HAMANY
23-04-2011, 12:45 AM
والله انك خطير..

طيب الحين دام اني من أول ابغى اعمل مقاطع فيديو وفيها لقطات مقتبسة من أفلام فهذي الطريقة تعتبر ممتازة بالبداية.. لكن هل تتوقع انها نفس الطريقة اللي قنوات الافلام يقتصون مشاهد معينة من افلام كثيرة أو ردود لممثلين عمالقة, أو فيه طريقة مختصرة نوعا ما لدمج كذا مقطع أنا قاصهم بطريقتك وحبيت أضيفهم كفلم واحد مدته دقيقة مثلا..

بعد التجربة ,,
اذا تبي تدمج اكثر من مقطع في ملف واحد .. لازم كل المقاطع تكون بنفس الرزليوشن و الفريم و ال ref وكودك الصوت ,,

والطريقة اما بال tsMuxer .. او تقدر تفتح ملف txt وتكتب داخلة :


copy /b *.ts merged.ts

طبعا غير ال ts الى اي امتاد تبيه .. واحفض الملف بصيغة bat .. خلة مكان المقاطع الي تبي تدمجها وشغل ال bat


ياخي انت رهيب ماشاء الله عليك يا حمني
موضوع مفيد ورائع

ولا يهمك اخوي :)


الف شكر على الشرح الجميل
بارك الله فيك

صحيح البرنامج الصغير ده فعال بقوه وهو اخوه الثاني الي يشبه حق الـ mkv

حاضرين ,, جزاك الله الف خير

Talal ALateeq
23-04-2011, 05:05 PM
ماقصرت الله يجزاك خير على الشرح
انا ودي بشرح او ببرنامج لحذف مقطع معين من فلم او حجبه

HAMANY
23-04-2011, 06:02 PM
^^
الفكرة بسيطة وممكن تسويها ..
نفرض ان الفلم مدته ساعتين (120 دقيقة)
والمقطع الي تبي تقطعة من الدقيقة 50 الى الدقيقة 51 ..

نقطع اول جزء من بداية الفلم (0 ثانية) إلى الدقيقة 50 (قبل المقطع الي تبي تحذفة)

بعدين تحط الفلم مرة ثانية وتقطع من بعد ما تنتهي من المقطع المراد حذفة (دقيقة 51) إلى نهاية الفلم

راح ينتج عندك مقطعين ,, الأول من 0 الى الدقيقة 50 ....
والثاني من الدقيقة 51 الى النهاية (دقيقة 120)

ادمج المقطيعن مع البعض بال tsMuxer او بالشرح في الرد 15 (http://www.avarab.com/vb/showthread.php?t=83&p=1645&viewfull=1#post1645)

اذا بغيت تقطع اكثر من مقطع سو نفس الطريقة وادمجهم الأجزاء كلهم مع بعض

واي سؤال تفضل :)

Talal ALateeq
23-04-2011, 06:43 PM
علم طال عمرك : )
وجاري التجربه ...
بارك الله فيك

fofo
24-05-2011, 03:25 PM
يعطيك العافيه اخوي
انا جربت الطريقه لاكن في النهايه طلع لي خطء

Reading buffer overflow. Possible container streams are not syncronized. Please, verify stream fps
!

HAMANY
24-05-2011, 04:58 PM
^^
الله يعافيك ..

ممكن اسم النسخه و log من برنامج media info
هل حاولت تغير ال Frame او صيغة الصوت ؟

HAMANY
24-05-2011, 10:18 PM
@gatsu

بالنسبة للأخذ صورة من الفلم هذي اسهل طريقة:

من برنامج MPC اضغط Alt + i .. واحفظ الصورة ب bmp

M B T 3 D
14-07-2011, 11:48 AM
اخوي HAMANY فكرة البرنامج ممتازه جدا ً
طيب الحين انا فكيت الضغط عن البرنامج ونتج عندي ملفين مثل اللي باالصوره

http://img4.imageshack.us/img4/444/11809550.jpg (http://img4.imageshack.us/i/11809550.jpg/)

هل احذف الملف الابيض أو اتركه ؟

والشئ الثاني هل الصوت يتأثر بعد اقتطاع جزء من الفلم وتحول صيغة الفلم من MKV الى TS ?

ومشكور ياالغالي على البرنامج وعلى الشرح الله يعطيك العافيه

HAMANY
14-07-2011, 07:24 PM
M B T 3 D@
(http://www.avarab.com/vb/member.php?u=285)الله يعافيك اخوي ,,

لا لاتمسح شيء ,, البرنامج مايشتغل الا بهالملفين ,, لو تحطهم في ال Program Files وتسوي short cut يكون افضل

لا مايأثر على وضوح الصورة ولا الصوت

M B T 3 D
15-07-2011, 09:28 AM
جربت البرنامج على فلم Cloverfield 2008
واقتطعت جزء من الدقيقه 34:46 إلى الدقيقه 36:33 ونجحة الطريقه :62:
وتركته بصيغة TS
حاولت ارفعه لكم بس الرفع كان بطئ بشكل مُمل,عشان حجم الملف تقريبا ً 100 ميقا

HAMANY
15-07-2011, 10:08 AM
^^
جزاك الله خير اخوي :)

بإذن الله لما انتهي من الإمتحانات راح افتح موضوع رسمي للمقاطع الممتازة في الصوت ,,
دام انك بدأت ياليت تقرأ هالنصائح

- اذا كان الفيديو الي قطعت منه وضوحة عالي (فوق ال 20 ميجا) .. انصحك بتقليل وضوح الصورة عشان يقل حجمه (استعمل Handbrake او RipBot) بشرحهم وقت ثاني

- يفضل ترفعه على سيرفر mediafire لأنه مفتوح والكل يقدر يستعمله

- تأكد اكثر من مرة ان المقطع لايحتوي على اي مشاهد مخلة (تعري او مشاهد حساسة) ويفضل انك ترسلها لي او لأي مشرف عشان يتأكد منها قبل ماتحطها في المنتدى

- ضع log برنامج mediaInfo للمقطع الي بترفعه

- صيغة ال ts و ال m2ts متشابهين .. تقدر ترجعه الى ال mkv عن طريق آخر شرح في هذا الموضوع .. والأمر راجع لك

- دائما نفضل ال HD Audio .. الي هي DTS-MA ــ TrueHD ــ LPCM

وشكرا :)

M B T 3 D
15-07-2011, 10:23 AM
حمني الله يوفقك في الامتحانات يارب ويسهل امورك

وجاري العمل بكل النصائح إللي قلت عليها

وفي إنتظار شرحك لـ Handbreak و RipBot

HAMANY
15-07-2011, 11:00 AM
أجمعين ان شاء الله,

توني مشغل نفس المقطع في Cloverfield .. ياخي الصوت مو طبيعي ^__^
الفلم موجود عندي TrueHD :62:

M B T 3 D
15-07-2011, 11:15 AM
هههههههه ياخي المقطع ذا مو طبيعي
يمكن لو اقولك ماتصدق , احيانا ً اشغل المسرح عشان المقطع ذا واعيده مرتين وثلاث :58:
ياليت يعملون له جزء ثاني

شكلي بدور عليه واحمله TRUE HD
اللي عندي DTS حجمه 4GB والصوت فيه مشاءالله تبارك الله رهيب
شلون اجل لو كان TRUE HD

علي دحنان
25-08-2011, 11:31 PM
تم بحمدلله شراء جهاز IXtreamer ارجو المساعده/
يوجد عندي
افلام Blu-ray
احجامها10 جيجا اريد الترجمه كيف الطريقه حاولت بشتى الطرق لم اتمكن هل يستطع جهازIXtreamer


بليزززز رجو المساعده


هذا نداء خاص لااهل الخبره


http://www.adslgate.com/dsl/images/smilies/new3.gifPlease help me

HAMANY
26-08-2011, 12:18 AM
@علي دحنان
(http://www.avarab.com/vb/member.php?u=545)
(http://www.avarab.com/vb/member.php?u=545)مبروك عليك الجهاز .. لازم يكون ملف الترجمه مع الفلم في نفس المجلد وبنفس الإسم
اذا ماضبط ادخل من الضبط Setting ودور subtitle (او اي كلمه قريبه) وغير الخيار الى Arabic RTL

علي دحنان
26-08-2011, 12:41 AM
هل انت متاكد.....:67:
بهذه السهوله انزل ترجمة الفلم واضعها بمجلد واحد وتكون بنفس الاسم وراح تشتغل
هل جربت هذه الطريقه من قبل في جهازIXtreamer
اخي تقريبا هذه الطريقة تنفع فقط اذا كنت اشغل الفلم على الكمبيوتر فقط

F H D
26-08-2011, 02:18 AM
^^^^
5 دبابات .. الله يستر ناوي على اجتياح كامل :)

بخصوص تشغيل الترجمة .. الطريقة نعم اكيده و مجربه مع الاسكتريمر و غيره وليس مع الكمبيوتر فقط ..

توضيح اكثر في هذا الاقتباس من رد سابق


مثلا حملت فلم UP
و وجدت اسم ملف الفلم كذا
Up.2009.720p.Bluray.x264-CBGB.mkv
حمل ملف الترجمة المضبوطة و المتوافقة مع توقيت نسخه الفلم .. و اجعل اسم ملف الترجمة كذا
Up.2009.720p.Bluray.x264-CBGB.srt

بعدين خلهم الاثنين في مجلد واحد وخلاص انتهت القضية .. لما تشغل الفلم راح يقراء الترجمة تلقائيا

و الي بالأحمر في الاسماء هذا امتداد ملف الفلم و امتداد ملف الترجمة ...
لا تغيره و المفروض ما يظهر لك عند تسمية الملف الا اذا انت مغير في اعدادات الويندوز لديك و مفعل ظهور الامتدادات

HAMANY
26-08-2011, 03:01 AM
@علي دحنان

(http://www.avarab.com/vb/member.php?u=545)ياخي رديت عليك لكن مادري وين اختفى ردي !

@F H D
(http://www.avarab.com/vb/member.php?u=4)تسلم على التوضيح

اذا ما اشتغلت بشرح فهد .. ادخل الضبط Setting في ال Xtreamer وغير ترميز الترجمة الى Arabic RTL

علي دحنان
26-08-2011, 03:24 AM
بصراحه لا اعلم كف اشكرك جزاك الله خير
راح ادعيلك الله يوفقك دنيا واخره
بس عندي سؤال اخر/

عندي افلامHD
لم اشغلها على جهاز IXtreamer

تعرض في منتصف الشاشه والاطراف من اعلا واسفل سوداء يعني العرض في منتصف الشاشه موكامله ولما اضع خيارPan scan :43
تطلع صورة المشاهده كامل الشاشه ولاكن كبيره ولا توضح
اجزاء المشاهده كامله الحقيقيه

ولما اضع الخيارات الاخرى تكون الصوره ايضا في المنتصف
علما انني حاولت اعدل خيارات واعدادت الشاشه دون جدوى
والشاشه هي سوني LCD

---------------------------------------------------
تم تعديل الردود لكي يبقى الموضوع في مساره. وشكرا :)


هالشيء طبيعي من تصوير الفلم ..
بعض الأفلام تجيك الشاشة كاملة وبعضها بالمستطيل الأسود
اذا سويت zoom للصورة راح تفقط اطراف الفلم


مثل ماقالك HAMANY إذا صورة الفلم جايه من المصدر وفيها اطراف سودا لا يمكن تلغيها إلا لو عملت زوم وطبعا لو عملت زوم بتفقد جزء من الصوره



اغلب الأفلام الجديدة
في معلومات الفلم اقرا ال Aspect Raio ..
اذا كان 1.78 يعني الشاشة كاملة
اذا 2.35 (او اي رقم قريب) يعني بالأطراف

اذا الرزليوشن 1920x1080 يعني شاشة كاملة (لل MKV فقط)
اذا 1920x800 او اي رقم غير اصغر من 1080 .. الفلم فيه اطراف




هذا الموضوع راح يفيدك .. الرد 13
http://www.avarab.com/vb/showthread.php?t=283

(http://www.avarab.com/vb/showthread.php?t=283)قوانين المنتدى لاتسمح للتطرق الى مواقع التحميل .. اعتذر :)

حافظ الود
26-08-2011, 08:22 PM
تم عمل مقاطع Sample

http://www.m5zn.com/uploads2/2011/8/26/photo/082611100811vt8hcldgnqi5kv.jpg

والله يعطيك العافية على جهودك

تحياتي

AboRayan01
27-08-2011, 09:30 PM
أبدعت بموضوعك ولي رجعة مع هالموضوع ان شاء الله يبيله جلسه تجارب :d

HAMANY
27-08-2011, 10:22 PM
@ حافظ الود
(http://www.avarab.com/vb/member.php?u=11)
ما شاء الله شغال عليهم :)

@ AboRayan01

(http://www.avarab.com/vb/member.php?u=330)ولايهمك اخوي .. اهم شيء استفدت

DTS-HD
31-08-2011, 12:40 AM
الله يعطيك العافيه HAMANY (http://www.avarab.com/vb/member.php?u=7)

ابدعت وشرح رائع وجميل وخفيف وواضح

اخوي HAMANY (http://www.avarab.com/vb/member.php?u=7)

طبعا ما يخفى وعليك وعلى الاخوان ان اغلب الافلام يكون فيها مقاطع غير لائقه للمشاهد خصوصا اللي بيشوفها مع افراد عائلته مكونه من اعمار مختلفه فيها الصغير وفيها الكبير

ساعات ودي اشوف فلم مع بعض افراد العائله واعيشهم جوء سينمائي .. بس المقاطع السيئه تمنعني من الفكره


سؤالي هل فيه طريقه بالبرنامج او اي طريقه بحيث اني اجهز الفلم واقطع بعض المشاهد حتى ما تظهر اثناء المشاهده ؟



وشكرا لك ولجميع الاخوان المشاركين وكل عام وانتم بخير وتقبل الله منا ومنكم الصيام والقيام

HAMANY
01-09-2011, 12:43 AM
^^
الله يعافيك ..

اذا ماتبي تغير جودة الصوت والصورة استعمل الطريقة الموجودة في الرد 17



نفرض ان الفلم مدته ساعتين (120 دقيقة)
والمقطع الي تبي تقطعة من الدقيقة 50 الى الدقيقة 51 ..

نقطع اول جزء من بداية الفلم (0 ثانية) إلى الدقيقة 50 (قبل المقطع الي تبي تحذفة)

بعدين تحط الفلم مرة ثانية وتقطع من بعد ما تنتهي من المقطع المراد حذفة (دقيقة 51) إلى نهاية الفلم

راح ينتج عندك مقطعين ,, الأول من 0 الى الدقيقة 50 ....
والثاني من الدقيقة 51 الى النهاية (دقيقة 120)

ادمج المقطيعن مع البعض بالشرح في الرد 15 (http://www.avarab.com/vb/showthread.php?t=83&p=1645&viewfull=1#post1645)

اذا بغيت تقطع اكثر من مقطع سو نفس الطريقة وادمجهم الأجزاء كلهم مع بعض


الطريقة مملة وصعبة شوي ..

اذا ماعندك مشكله في تغير جودة الصوت .. ممكن تستعمل AVS Video ReMaker
اقطع الي تبيه و سوه Remake .. للعلم الصوت راح يتحول الى 2.0 اما الصورة ماراح يتغير فيها شيء

علي دحنان
16-09-2011, 03:05 PM
سؤال لااهل الخبره/
كيف اقدر اترجم فلم وانسخه على اسطوانه وتكون صيغته تقبل التشغيل على جهاز دفدي العادي

HAMANY
16-09-2011, 04:00 PM
^
اذا تبي تشغله على ال DVD استعمل برنامج Convert X to DVD
يركب الترجمة ويقلل الوضوح وينسخة على على DVD

علي دحنان
16-09-2011, 04:07 PM
كيف يقلل الوضوح

HAMANY
16-09-2011, 04:29 PM
بشكل بسيط عشان يقلل الحجم لل DVD

أرسنالي لـــــلأبد
04-10-2011, 10:17 AM
يعيطك العافيه على البرنامج الجميل

بس كل ما اقص يوصل التحويل الى 7/100

ويوقف القص ومايطلع معاي المقطع المقصوص كامل وماهو نفس اللي حدده !!!

HAMANY
04-10-2011, 02:29 PM
^
ممكن تفاصيل اكثر وصورة يكون افضل
متأكد من min و ال Sec ؟

khaled samra
04-10-2011, 04:58 PM
لو في عندك طريقة لقص المشاهد الخارجة في الفيلم

HAMANY
04-10-2011, 05:54 PM
^
في كم شرح في الصفحة لأولى والثانية لكن صعب

azoz
04-10-2011, 05:57 PM
يعطيك العافيه اخوي hamany ماشاء الله عليك مواضيعك مميزه بالتوفيق لك ولكل الاعضاء

أرسنالي لـــــلأبد
04-10-2011, 06:54 PM
^
ممكن تفاصيل اكثر وصورة يكون افضل
متأكد من min و ال Sec ؟


اخوي كل ماخذ صور لسطح المكتب والفيديو عن طريق الرسام موراضي عن طريق زر HOME SYSRQ

جهاز لاب توب توشيبا !!!!

HAMANY
04-10-2011, 06:57 PM
^
اضغط Print Screen من الكيبورد ثم paste في الرسام

أرسنالي لـــــلأبد
04-10-2011, 07:06 PM
http://img401.imageshack.us/img401/3107/img0010qu.th.jpg (http://imageshack.us/photo/my-images/401/img0010qu.jpg/)

أرسنالي لـــــلأبد
04-10-2011, 07:07 PM
تم التصوير عن طريق الايفون :(

khaled samra
04-10-2011, 07:40 PM
السلام عليكم

اخي الكريم بعد اخذ مشهد من الفيلم وتشغيلة وتقديم المشهد يكون بطؤ في الاستجابة والصوت يكون شغال.
وايضا عند فحص معلومات المشهد المقطوع تكون فيه المعلومات وهمية مثلا البت ريت فحصته طلع عندي 18 ميجا لكنه في النسخة mkv اقل بكثير.
وايضا هناك المصغرات تظهر ب m2ts ولا تظهر ب MKV لماذا؟

HAMANY
04-10-2011, 07:45 PM
@ أرسنالي لـــــلأبد (http://www.avarab.com/vb/member.php?u=696)

جرب زر ال Print Screen او PrtS

العملية مافيها اي اخطاء .. وشيء طبيعي يوقف عند ال 7% او اي رقم ثاني لأنه قطع لجزء من الفلم وليس تحول للفلم كله
مافي اي Error عندك .. يعني المشكله احتمال تكون من حسابك للوقت ..

احيانا تحصل مشكله بحيث المقطع يزيد او يقل بشكل بسيط عن الوقت الي حددته .. السبب هو عدم قدرة البرنامج من الوقوف عند أي frame

ممكن تفاصيل اكثر .. يعني المقطع الي نتج عندك هل هو أقل من المطلوب او اكثر ؟ او مختلف جدا ؟

HAMANY
04-10-2011, 07:52 PM
السلام عليكم

اخي الكريم بعد اخذ مشهد من الفيلم وتشغيلة وتقديم المشهد يكون بطؤ في الاستجابة والصوت يكون شغال.
وايضا عند فحص معلومات المشهد المقطوع تكون فيه المعلومات وهمية مثلا البت ريت فحصته طلع عندي 18 ميجا لكنه في النسخة mkv اقل بكثير.
وايضا هناك المصغرات تظهر ب m2ts ولا تظهر ب MKV لماذا؟

هذي المشكله من ال codec الي عندك .. واحتمال ثاني من ضعف مواصفات جهازك
البيت ريت ممكن يكون Average او Max .. وهو ممكن يكون Total Bitrate يعني بت ريت الفيديو و الصوت .. ركزت على اي واحد ؟

بالنسبه للمصغرات ماعندي علم عنها .. الي اعرفه اذا تستعمل برنامج MPC في خيار اذا فعلته يعرض لك المضغرات (Thumb)

khaled samra
04-10-2011, 08:14 PM
هذه المشكلة ظهرت مع الملف المقطوع فقط. وبالنسبة لمواصفات جهازي فهي عالية جدا.
شوف الصورة بالنسبة للمعلومات
http://sewar.panet.co.il/images/2011/10/04/untitled.jpg

HAMANY
04-10-2011, 08:25 PM
^
ممكن نتسخ معلومات ال MKV وتحطها في code ؟ عشان اقارن بينهم
بالنسبه للتقطيع الي يصير انا مثلك .. لما احرك في مقاطع ال mt2s يصير تأخير في الصورة بعد ثانيتين تضبط
والسبب من ال codec .. اذا تستعمل ال CoreAVC او FFdshow ممكن تنحل المشكله

اما ال Bitrate في احتمال يختلف بسبب إختلاف مدة المقطع .. المعروف ان ال 18 ميجا هو متوسط البت ريت في الفيديو الي عندك
احتمال ان المقطع الي قطعته، متوسط البت ريت فيه عالي جدا عشان كذا المتوسط زاد ..
لكن تأكد .. مستحيل هالبرنامج يغير وضوح الفلم .. تغيير لوضوح يحتاج Re-Encode وهذا يتطلب ساعات على بروسسر قوي
احتمال تستغرق عملية التحويل 5 ايام اذا كان الفلم عالي الدقة مثل ال IMAX

انسخ log الملف الأصلي

أرسنالي لـــــلأبد
05-10-2011, 01:14 AM
يعني المشكله احتمال تكون من حسابك للوقت ..

احيانا تحصل مشكله بحيث المقطع يزيد او يقل بشكل بسيط عن الوقت الي حددته .. السبب هو عدم قدرة البرنامج من الوقوف عند أي frame

ممكن تفاصيل اكثر .. يعني المقطع الي نتج عندك هل هو أقل من المطلوب او اكثر ؟ او مختلف جدا ؟


ابشرك ظبط معاي البرنامج طلعت المشكله مني:19: في تحديد الوقت لاني جربت البرنامج على قص لقطه من مباراه كامله فل تش دي

لاني وضعت تحديد الوقت على نفس عداد الوقت للمباراه وليس على توقيت عداد الفيديو :(

طبعا المادة المقصوصه يكون الBitrate نفس ال Bitrate للملف الاصلي صح !!!


وهل البرنامج يقبل قص ملفات ال MKV !!!!

HAMANY
05-10-2011, 06:48 AM
^
قايلك المشكله من اعداداتك :)

ايه ال Bitrate مايتغير .. احتمال بسيط يتغير المتوسط Average لأنها حسبه رياضيه تعتمد على مدة المقطع ..
لكن تغير ال Average لايعني ان الوضوح قل ..

نعم يقبل ال MKV

khaled samra
05-10-2011, 07:08 AM
المعلومات للفيلم الكامل


General
Unique ID : 215662980715589983324512135932386847198 (0xA23F2DE30A158462873366F4DE91A9DE)
Complete name : F:\HD Movies\Predator 1987 1080p BluRay\Predator 1987 1920 x 1040p BluRay.mkv
Format : Matroska
Format version : Version 2
File size : 9.85 GiB
Duration : 1h 46mn
Overall bit rate : 13.2 Mbps
Encoded date : UTC 2011-09-29 21:36:10
Writing application : mkvmerge v4.9.1 ('Ich will') built on Jul 11 2011 23:53:15
Writing library : libebml v1.2.1 + libmatroska v1.1.1
Video
ID : 1
Format : AVC
Format/Info : Advanced Video Codec
Format profile : High@L4.1
Format settings, CABAC : Yes
Format settings, ReFrames : 4 frames
Codec ID : V_MPEG4/ISO/AVC
Duration : 1h 46mn
Bit rate : 11.7 Mbps
Width : 1 920 pixels
Height : 1 040 pixels
Display aspect ratio : 16:9
Frame rate : 23.976 fps
Color space : YUV
Chroma subsampling : 4:2:0
Bit depth : 8 bits
Scan type : Progressive
Bits/(Pixel*Frame) : 0.245
Stream size : 8.53 GiB (87%)
Title : Predator Ultimate Hunter Edition 1987 BluRay 1080p 2Audio x264-CHD
Writing library : x264 core 88 r1471 1144615
Encoding settings : cabac=1 / ref=4 / deblock=1:-3:-3 / analyse=0x3:0x113 / me=umh / subme=10 / psy=1 / psy_rd=1.05:0.10 / mixed_ref=1 / me_range=32 / chroma_me=1 / trellis=2 / 8x8dct=1 / cqm=2 / deadzone=21,11 / fast_pskip=0 / chroma_qp_offset=-2 / threads=12 / sliced_threads=0 / nr=0 / decimate=1 / mbaff=0 / constrained_intra=0 / bframes=3 / b_pyramid=2 / b_adapt=2 / b_bias=0 / direct=3 / wpredb=1 / wpredp=2 / keyint=250 / keyint_min=25 / scenecut=40 / intra_refresh=0 / rc_lookahead=50 / rc=2pass / mbtree=1 / bitrate=11727 / ratetol=2.0 / qcomp=0.70 / qpmin=10 / qpmax=51 / qpstep=4 / cplxblur=20.0 / qblur=0.5 / vbv_maxrate=50000 / vbv_bufsize=50000 / ip_ratio=1.40 / aq=1:1.00
Language : English
Audio
ID : 2
Format : DTS
Format/Info : Digital Theater Systems
Codec ID : A_DTS
Duration : 1h 46mn
Bit rate mode : Constant
Bit rate : 1 510 Kbps
Channel(s) : 6 channels
Channel positions : Front: L C R, Side: L R, LFE
Sampling rate : 48.0 KHz
Bit depth : 24 bits
Compression mode : Lossy
Delay relative to video : 11ms
Stream size : 1.12 GiB (11%)
Title : DTS-HD MA CORE 1536K
Language : English



وهذه للمشهد المقطوع


General
ID : 1 (0x1)
Complete name : F:\HD Movies\Predator 1987 1080p BluRay\Predator 1987 1920 x 1040p BluRay.m2ts
Format : BDAV
Format/Info : Blu-ray Video
File size : 728 MiB
Duration : 4mn 57s
Overall bit rate : 20.5 Mbps
Maximum Overall bit rate : 35.5 Mbps
Video
ID : 4113 (0x1011)
Menu ID : 1 (0x1)
Format : AVC
Format/Info : Advanced Video Codec
Format profile : High@L4.1
Format settings, CABAC : Yes
Format settings, ReFrames : 4 frames
Codec ID : 27
Duration : 4mn 57s
Bit rate mode : Variable
Bit rate : 18.2 Mbps
Maximum bit rate : 40.0 Mbps
Width : 1 920 pixels
Height : 1 040 pixels
Display aspect ratio : 16:9
Frame rate : 23.976 fps
Color space : YUV
Chroma subsampling : 4:2:0
Bit depth : 8 bits
Scan type : Progressive
Bits/(Pixel*Frame) : 0.380
Stream size : 645 MiB (89%)
Language : English
Audio
ID : 4352 (0x1100)
Menu ID : 1 (0x1)
Format : DTS
Format/Info : Digital Theater Systems
Codec ID : 130
Duration : 4mn 57s
Bit rate mode : Constant
Bit rate : 1 510 Kbps
Channel(s) : 6 channels
Channel positions : Front: L C R, Side: L R, LFE
Sampling rate : 48.0 KHz
Bit depth : 24 bits
Compression mode : Lossy
Delay relative to video : -116ms
Stream size : 53.6 MiB (7%)
Language : English


لدي استفسار آخر:
ماذا لو حولت فيلم بصيغة MKV الى M2TS
سيكون كل شيء طبيعي ولا يكون اختلاف او اي شيء غير طبيعي بعمل الصوت والصورة؟

شكرا لك

HAMANY
05-10-2011, 12:22 PM
ما اعتقد ال MKV بيغير شيء .. جرب ..
على العموم التغيير الي صار مقل ما قلت لك بسبب نقص مدة المقطع .. مما أثر على العملية الحسابية للمتوسط Average
فزاد الرقم .. في الحقيقة الوضوح نفسه من المصدر ما زاد ولا نقص ..

khaled samra
05-10-2011, 02:01 PM
انا ما قصدت انه ال mkv بغير شيء او لا
انا اقصد اذا حولت الفيلم كاملا من mkv الى m2ts
كل شيء يكون طبيعي بدون اي عوارض تذكر؟
وانظر الى هذا الخطأ عندما اضيف ملف mkv لكي احوله الى m2ts
http://sewar.panet.co.il/images/2011/10/05/untitlfzf.jpg

اغلب الملفات لا يقبلها
نجحت في ملف واحد وحولته.
ما معنى هذا الخطأ؟

HAMANY
05-10-2011, 02:43 PM
^
ايه مافي اي عوارض بإستثناء ان ال m2ts حجمه اكبر بقليل
حط لي log الملف الي ماضبط .. ال MKV الي عندي كلهم يضبطون مع ال tsMuxer
الظاهر الي جربته الكودك حقه مختلف

khaled samra
05-10-2011, 05:11 PM
الصورة اللي بالاعلى هي لرمز الخطأ الذي يظهر عند اضافة ملف MKV
هل يمكن هذا الخطأ ناجم بسبب اني حولت الملف MKV سابقا الى MKV آخر بدمج الترجمة فيه.
لأني استعملت هذه الطريقة لكل ملفاتي عن طريق برنامج mkvmerge GUI
وايضا هناك اخطاء بالصورة عند تشغيل الملف حيث انه في بعض الملفات يكون توقف للصورة وانا اشاهد الفيلم ومن ثم يستكمل لوحدة واحيانا لا يستكمل الا اذا انا بنفسي استقدم الوقت.
يبدو انه نجم خلل معين اثناء عملية MUX في البرنامج المذكور.
ما رأيك؟

HAMANY
05-10-2011, 05:53 PM
من الحالات الي ممكن تواجه فيها خطأ .. هي تواجد ملف TrueHD داخل ال MKV
او كودك الصورة غير ال H264 او VC-1 او MPEG-2

khaled samra
06-10-2011, 01:15 AM
الخطأ متواجد دون ما ذكرت

HAMANY
06-10-2011, 04:59 AM
^
الخطأ في احد التركات الموجودة داخل ال MKV .. ولو انك ضفت الترجمة وبعدها ظهر هالخطأ
يعني المشكله في الترجمة .. تراك الصورة والصوت راح يدخلون في البرنامج بدون مشاكل

اذا تواجه مشكلة اكبر حط log الفلم

khaled samra
06-10-2011, 07:48 AM
General
Unique ID : 214430406999545243455965063784128347267 (0xA151CB4F8FA6DE1B938F2BC5742C7C83)
Complete name : F:\HD Movies\Fast Five 2011 1080p BluRay\Fast Five 2011 1920 x 816p BluRay.mkv
Format : Matroska
Format version : Version 2
File size : 10.8 GiB
Duration : 2h 10mn
Overall bit rate : 11.9 Mbps
Movie name : 洛杉矶之战 by 特大碗牛肉面
Encoded date : UTC 2011-09-25 17:46:12
Writing application : mkvmerge v4.9.1 ('Ich will') built on Jul 11 2011 23:53:15
Writing library : libebml v1.2.1 + libmatroska v1.1.1
Video
ID : 2
Format : AVC
Format/Info : Advanced Video Codec
Format profile : High@L4.0
Format settings, CABAC : Yes
Format settings, ReFrames : 4 frames
Codec ID : V_MPEG4/ISO/AVC
Duration : 2h 10mn
Bit rate : 10.4 Mbps
Width : 1 920 pixels
Height : 816 pixels
Display aspect ratio : 2.35:1
Frame rate : 23.976 fps
Color space : YUV
Chroma subsampling : 4:2:0
Bit depth : 8 bits
Scan type : Progressive
Bits/(Pixel*Frame) : 0.276
Stream size : 9.23 GiB (85%)
Writing library : x264 core 115 r1995 c1e60b9
Encoding settings : cabac=1 / ref=4 / deblock=1:-1:-1 / analyse=0x3:0x113 / me=hex / subme=8 / psy=1 / psy_rd=1.00:0.15 / mixed_ref=1 / me_range=16 / chroma_me=1 / trellis=1 / 8x8dct=1 / cqm=0 / deadzone=21,11 / fast_pskip=1 / chroma_qp_offset=-3 / threads=12 / sliced_threads=0 / nr=0 / decimate=1 / interlaced=0 / bluray_compat=0 / constrained_intra=0 / bframes=3 / b_pyramid=2 / b_adapt=1 / b_bias=0 / direct=1 / weightb=1 / open_gop=0 / weightp=2 / keyint=250 / keyint_min=23 / scenecut=40 / intra_refresh=0 / rc_lookahead=40 / rc=2pass / mbtree=1 / bitrate=10377 / ratetol=1.0 / qcomp=0.60 / qpmin=10 / qpmax=51 / qpstep=4 / cplxblur=20.0 / qblur=0.5 / ip_ratio=1.40 / aq=1:1.00
Language : English
Audio
ID : 1
Format : DTS
Format/Info : Digital Theater Systems
Muxing mode : Header stripping
Codec ID : A_DTS
Duration : 2h 10mn
Bit rate mode : Constant
Bit rate : 1 510 Kbps
Channel(s) : 6 channels
Channel positions : Front: L C R, Side: L R, LFE
Sampling rate : 48.0 KHz
Bit depth : 24 bits
Compression mode : Lossy
Delay relative to video : 11ms
Stream size : 1.37 GiB (13%)
Title : DTS 1510 Kbps
Language : English

أرسنالي لـــــلأبد
06-10-2011, 03:27 PM
^
قايلك المشكله من اعداداتك :)

ايه ال Bitrate مايتغير .. احتمال بسيط يتغير المتوسط Average لأنها حسبه رياضيه تعتمد على مدة المقطع ..
لكن تغير ال Average لايعني ان الوضوح قل ..

نعم يقبل ال MKV


تسلم والله على البرنامج والافاده ياحمني

واصل تميزك يابطل

HAMANY
06-10-2011, 07:04 PM
@أرسلاني

ولا يهمك اخوي :)

------

@ خالد

الي شاك فيهم:
ال Tag الي بالصيني
وال Muxing Mode للتراك ال DTS .. مكتوب Header stripping

في شيء ثاني يأثر على اضافة الفلم وهو اذا كان ال Path طويل جدا .. مثال

C://User//Fast F********//Fast******.mkv

النجوم هي جملة طويلة جدا

khaled samra
07-10-2011, 10:47 AM
الي شاك فيهم:
ال Tag الي بالصيني
وال Muxing Mode للتراك ال DTS .. مكتوب Header stripping


شو لازم يكون مكتوب مكان header stripping
وشو هذا التاج الصيني من وين اجا مش عارف

HAMANY
07-10-2011, 10:54 AM
ال header stripping المفروض ماتحصله من ضمن المعلومات .. لأنه المفروض يكون non
استعمل MKVmerge ومن ال Extra Option خل ال Compression = non
واحذف ال Tag الصيني اذا تقدر