إعلانات

الموضوع: افضل decoder لــــ AAC

النتائج 1 إلى 8 من 8
  1. #1
    عضو الصورة الرمزية fahad211
    الـعـضـوية
    1136
    الإنـضـمـام
    Jan 2012
    الإقـــامـــة
    السعودية - جدة
    المشاركات
    48
    قدم شـكـره
    10 مرة
    تـم شـكـره
    169 مرة في 28 مشاركة

    افضل decoder لــــ AAC

    السلام عليكم ورحمة الله وبركاته
    عندي مشكلة في اخراج الصوت في افلام BRRIP اللي الصوت يكون فيها بيصغة AAC 5.1 الصوت يخرج استريو عن طريق برنامج MPC اما في XBMC الصوت يخرج 5.1
    جربت ديكودير COREAAC ما نفع وكمان FFDSHOW و LAV برضو نفس المشكلة



    علما بـ أن ماوجهت مشكلة في اخراج اصوات DTS-DOLPY DIGTAL

  2. #2
    بـو عـبـد الـلـه عضو محترف الصورة الرمزية The Adviser
    الـعـضـوية
    17
    الإنـضـمـام
    Feb 2011
    الإقـــامـــة
    السعودية - الأحساء
    المشاركات
    1,398
    قدم شـكـره
    1,742 مرة
    تـم شـكـره
    2,357 مرة في 710 مشاركة

    رد: افضل decoder لــــ AAC

    وعليكم السلام

    اعرض لنا معلومات الفلم عن طريق البرنامج mediainfo وهذا شرح البرنامج

    http://www.avarab.com/vb/showthread.php?t=59

    يفضل طريقة عرض text

    جديد علي هالصوت لكن بحاول احل مشكلتك

  3. قدم 2 من الأعضاء شكرهم إلى The Adviser على هذه المشاركة:


  4. #3
    عضو مجتهد الصورة الرمزية AboRayan01
    الـعـضـوية
    330
    الإنـضـمـام
    Jun 2011
    الإقـــامـــة
    السعودية - الدمام
    المشاركات
    614
    قدم شـكـره
    568 مرة
    تـم شـكـره
    464 مرة في 130 مشاركة

    رد: افضل decoder لــــ AAC

    تأكد انك مختار الريسيفر او كرت الشاشة من اعدادات
    MPC لاخراج الصوت وجرب موفي bluray 5.1 dts وشوف بيطلع الصوت تمام؟
    التوقيع :
    سبحان الله وبحمده ... سبحان الله العظيم ... كلمتان خفيفتان على اللسان ثقيلتان في الميزان حبيبتان الى الرحمن!!
    من أكل طعاما ثم قال : الحمد لله الذي أطعمني هذا الطعام ورزقنيه من غير حول مني ولا قوة ... غفر له ما تقدم من ذنبه!!
    My Home Theater: Panasonic TC-P 55 VT30 (2011) : PS3 PAL.AUDIO : Onkyo HT-RC360 7.2-Channel : SPEAKERS: F KEF IQ90 x2, C IQ60, Su IQ30 Black
    HTPC Case: SilverStone LC10B E - IntelCore i5 - GeForce GT430 - DDR3 Corsair8GB - HDSSD: Crucial64GB HD3TBx2 - Moth:ASUS P8P67LE
    My Best MPC: XBMC

  5. #4
    عضو الصورة الرمزية fahad211
    الـعـضـوية
    1136
    الإنـضـمـام
    Jan 2012
    الإقـــامـــة
    السعودية - جدة
    المشاركات
    48
    قدم شـكـره
    10 مرة
    تـم شـكـره
    169 مرة في 28 مشاركة

    رد: افضل decoder لــــ AAC

    إقتباس :
    المشاركة الأصلية كتبت بواسطة The Adviser مشاهدة المشاركة
    وعليكم السلام

    اعرض لنا معلومات الفلم عن طريق البرنامج mediainfo وهذا شرح البرنامج

    http://www.avarab.com/vb/showthread.php?t=59

    يفضل طريقة عرض text

    جديد علي هالصوت لكن بحاول احل مشكلتك
    مشكور على الرد
    تفضل هذ معلومات الفلم
    ورفعت sample من الفلم
    http://www.mediafire.com/?ctbzxpvcfnico9z

    General
    Complete name : D:\movies\ENGLISH MOVIES\Four Brothers 2005 BRRip H264 AAC 5.1 ch-bluna\Sample\Sample.mp4
    Format : MPEG-4
    Format profile : Base Media
    Codec ID : isom
    File size : 16.6 MiB
    Duration : 1mn 5s
    Overall bit rate mode : Variable
    Overall bit rate : 2 129 Kbps
    Encoded date : UTC 2010-06-08 18:07:35
    Tagged date : UTC 2010-06-08 18:07:35
    Video
    ID : 1
    Format : AVC
    Format/Info : Advanced Video Codec
    Format profile : High@L4.1
    Format settings, CABAC : Yes
    Format settings, ReFrames : 8 frames
    Codec ID : avc1
    Codec ID/Info : Advanced Video Coding
    Duration : 1mn 5s
    Bit rate : 1 941 Kbps
    Maximum bit rate : 14.9 Mbps
    Width : 1 280 pixels
    Height : 544 pixels
    Display aspect ratio : 2.35:1
    Frame rate mode : Constant
    Frame rate : 23.976 fps
    Color space : YUV
    Chroma subsampling : 40
    Bit depth : 8 bits
    Scan type : Progressive
    Bits/(Pixel*Frame) : 0.116
    Stream size : 15.1 MiB (91%)
    Title : Imported with GPAC 0.4.6-DEV (build 1)
    Encoded date : UTC 2010-05-31 04:21:42
    Tagged date : UTC 2010-06-08 18:07:36
    Audio
    ID : 2
    Format : AAC
    Format/Info : Advanced Audio Codec
    Format profile : LC
    Codec ID : 40
    Duration : 1mn 5s
    Bit rate mode : Variable
    Bit rate : 184 Kbps
    Nominal bit rate : 256 Kbps
    Maximum bit rate : 352 Kbps
    Channel(s) : 6 channels
    Channel positions : Front: L C R, Side: L R, LFE
    Sampling rate : 48.0 KHz
    Compression mode : Lossy
    Stream size : 1.43 MiB (9%)
    Encoded date : UTC 2010-05-31 04:24:21
    Tagged date : UTC 2010-06-08 18:07:36

  6. #5
    عضو مشارك عضو محترف

    الـعـضـوية
    1048
    الإنـضـمـام
    Dec 2011
    الإقـــامـــة
    السعودية - الرياض
    المشاركات
    178
    قدم شـكـره
    2 مرة
    تـم شـكـره
    873 مرة في 163 مشاركة

    رد: افضل decoder لــــ AAC

    AAC هي النسخة الحديثه من MP3 الخاصة بتعدد القنوات ، لما يتم عمل ديكودنق لها وإرسالها للرسيفر راح تكون دولبي ديجتل (أو دولبي برولوجيك ، حسب إعدادات ديكودراتك)

    إذا ماودك تشيل كل المكتبات وتركب من جديد ، فحمل اليوتلتي هذي
    http://www.codecguide.com/windows7_p...er_tweaker.htm
    وهي تبي تعطل الديكودرات والفلاتر الداخليه حقت الويندوز ، وبتخليك تعتمد على أفضل خيارات الديكودرات الي موجوده حالياً (بافتراض أنك تركب ديكودر تفضله يقدر يتعامل مع AAC زي ffdshow أو غيره)

    أو أحذف كل العده (بما فيها MPC) ، وحمل مكتبة CCCP ، ويجي معها نسخة MPC-HC استخدمها للتشغيل وإن شاء الله تضبط معاك (بس تأكد في اعدادات تفعيل المكتبة أنك تفعل الصوت المحيطي)

    بالتوفيق

  7. قدم 2 من الأعضاء شكرهم إلى tria على هذه المشاركة:


  8. #6
    عضو الصورة الرمزية fahad211
    الـعـضـوية
    1136
    الإنـضـمـام
    Jan 2012
    الإقـــامـــة
    السعودية - جدة
    المشاركات
    48
    قدم شـكـره
    10 مرة
    تـم شـكـره
    169 مرة في 28 مشاركة

    رد: افضل decoder لــــ AAC

    إقتباس :
    المشاركة الأصلية كتبت بواسطة AboRayan01 مشاهدة المشاركة
    تأكد انك مختار الريسيفر او كرت الشاشة من اعدادات
    MPC لاخراج الصوت وجرب موفي bluray 5.1 dts وشوف بيطلع الصوت تمام؟
    شكرا اخوي AboRayan على الرد مثل ماذكرت في الموضوع افلام البلوراي الي يكون فيها الصوت dts أو dolby digtal شغالة تمام في المسرح تظهر صيغة الصوت 5.1 اما الأفلام AAC يظهر الصوت استريو

  9. #7
    عضو الصورة الرمزية fahad211
    الـعـضـوية
    1136
    الإنـضـمـام
    Jan 2012
    الإقـــامـــة
    السعودية - جدة
    المشاركات
    48
    قدم شـكـره
    10 مرة
    تـم شـكـره
    169 مرة في 28 مشاركة

    رد: افضل decoder لــــ AAC

    إقتباس :
    المشاركة الأصلية كتبت بواسطة tria مشاهدة المشاركة
    AAC هي النسخة الحديثه من MP3 الخاصة بتعدد القنوات ، لما يتم عمل ديكودنق لها وإرسالها للرسيفر راح تكون دولبي ديجتل (أو دولبي برولوجيك ، حسب إعدادات ديكودراتك)

    إذا ماودك تشيل كل المكتبات وتركب من جديد ، فحمل اليوتلتي هذي
    http://www.codecguide.com/windows7_p...er_tweaker.htm
    وهي تبي تعطل الديكودرات والفلاتر الداخليه حقت الويندوز ، وبتخليك تعتمد على أفضل خيارات الديكودرات الي موجوده حالياً (بافتراض أنك تركب ديكودر تفضله يقدر يتعامل مع AAC زي ffdshow أو غيره)

    أو أحذف كل العده (بما فيها MPC) ، وحمل مكتبة CCCP ، ويجي معها نسخة MPC-HC استخدمها للتشغيل وإن شاء الله تضبط معاك (بس تأكد في اعدادات تفعيل المكتبة أنك تفعل الصوت المحيطي)

    بالتوفيق
    طيب اخوي TRIA ممكن تجرب SAMPLE وتشوف الصوت شغال عندك تمام
    http://www.mediafire.com/?ctbzxpvcfnico9z

  10. #8
    عضو الصورة الرمزية fahad211
    الـعـضـوية
    1136
    الإنـضـمـام
    Jan 2012
    الإقـــامـــة
    السعودية - جدة
    المشاركات
    48
    قدم شـكـره
    10 مرة
    تـم شـكـره
    169 مرة في 28 مشاركة

    رد: افضل decoder لــــ AAC

    تم حل المشكلة وهي تفعيل AC3 SPDIF في FFDSHOW OUTPUT

    وشكرا لكم

  11. قدم 2 من الأعضاء شكرهم إلى fahad211 على هذه المشاركة:


إعلانات