إعلانات

الموضوع: إستفسار عن صيغ الأفلام الموجودة في مواقع التورنت !!

صفحة 1 من 3 123 الأخيرةالأخيرة
النتائج 1 إلى 20 من 52
  1. #1
    عضو مشارك الصورة الرمزية BADR
    الـعـضـوية
    108
    الإنـضـمـام
    Apr 2011
    الإقـــامـــة
    السعودية - الرياض
    المشاركات
    150
    قدم شـكـره
    193 مرة
    تـم شـكـره
    155 مرة في 45 مشاركة

    إستفسار عن صيغ الأفلام الموجودة في مواقع التورنت !!

    السلام عليكم ورحمته وبركاته

    أخوكم يحمل أفلام 1080 بشكل كبير جداً

    وأحتار دائما عند التحميل في إختيار الصيغه الأفضل والأحسن

    مثال لفلم Battle Los Angeles

    الصيغ الموجودة في المواقع كالتالي :


    إقتباس :

    Battle.Los.Angeles.2011.1080p.BluRay.DTSMA.dxva.x2 64-FLAWL3SS

    General Information


    Sample Included......: YES

    DXVA Compliant.......: YES
    Chapters Included....: YES
    Source...............: Blu-ray
    Container............: Matroska (MKV)
    Length...............: 1hours 56minutes
    Size.................: 13.4GiB
    Total Bitrate........: 16.5 Mbps
    IMDb Information.....: http://www.imdb.com/title/tt1217613/
    Genre................: Action | Sci-Fi


    Audio Info

    Codec................: DTS

    Bitrate..............: 1 510 Kbps
    kHz/bit..............: 48 kHz / 24-bit
    Channels.............: 6
    Language.............: English
    Subtitles............: English | Czech | Hungarian | Polish | Hindi | Arabic | Bulgarian |
    Croatian | Estonian | Hebrew | Icelandic | Lithuanian | Portuguese |
    Romanian | Serbian | Slovak | Slovenian | Turkish |


    Video Info

    Format...............: AVC

    Format Info..........: Advanced Video Codec
    Codec ID.............: V_MPEG4/ISO/AVC/x264
    Type.................: 1080p
    Format Profile Level.: High @ 4.1
    Resolution...........: 1920x800
    Aspect Ratio.........: 2.40:1
    Bitrate..............: 14.0 Mbps
    Framerate............: 23.976fps



    إقتباس :


    Battle Los Angeles 2011 BluRay 1080p DTS x264-CHD


    RELEASE DATE....: 05/08/2011
    THEATRE DATE....: 2011
    iMDB URL........: http://www.imdb.com/title/tt1217613/
    iMDB RATiNG.....: 6.4/10 (15,473 votes)
    GENRE...........: Action | Sci-Fi | Thriller
    SOURCE..........: Battle:Los.Angeles.2011.1080p.Blu-ray.AVC.DTS-HD.MA5.1-CHDBits
    ViDEO BiTRATE...: x264 @ 12660 Kbps (53% of Source)
    FRAME RATE......: 23.976 fps
    AUDiO 1.........: ENG DTS-CORE 5.1CH @ 1536 Kbps
    RUNTiME 1.......: 01:56:10 (h:m:s)
    ASPECT RATiO....: 2.400: 1
    RESOLUTiON......: 1920 X 800
    SUBTiTLES.......: N/A
    FilE SiZE.......: 11.5G
    Encoder.........: chp@CHD





    إقتباس :
    Battle.Los.Angeles.2011.1080p.BluRay.x264.DTS-WiKi



    General
    Unique ID : 179297328679425652609573630696424212919 (0x86E368D01798D91191892A601A0409B7)
    Complete name : W:\torrents\Battle.Los.Angeles.2011.1080p.BluRay.x 264.DTS-WiKi\Battle.Los.Angeles.2011.1080p.BluRay.x264.DTS-WiKi.mkv
    Format : Matroska
    File size : 12.0 GiB
    Duration : 1h 56mn
    Overall bit rate : 14.8 Mbps
    Encoded date : UTC 2011-05-09 0351
    Writing application : mkvmerge v2.2.0 ('Turn It On Again') built on Mar 4 2008 13:20:25
    Writing library : libebml v0.7.7 + libmatroska v0.8.1

    Video
    ID : 1
    Format : AVC
    Format/Info : Advanced Video Codec
    Format profile : High@L4.1
    Format settings, CABAC : Yes
    Format settings, ReFrames : 4 frames
    Format settings, GOP : M=2, N=20
    Codec ID : V_MPEG4/ISO/AVC
    Duration : 1h 56mn
    Bit rate : 13.3 Mbps
    Width : 1 920 pixels
    Height : 800 pixels
    Display aspect ratio : 2.40:1
    Frame rate : 23.976 fps
    Color space : YUV
    Chroma subsampling : 40
    Bit depth : 8 bits
    Scan type : Progressive
    Bits/(Pixel*Frame) : 0.360
    Stream size : 10.5 GiB (88%)
    Writing library : x264 core 98 r1649 c54c47d

    Audio
    ID : 2
    Format : DTS
    Format/Info : Digital Theater Systems
    Codec ID : A_DTS
    Duration : 1h 56mn
    Bit rate mode : Constant
    Bit rate : 1 510 Kbps
    Channel(s) : 6 channels
    Channel positions : Front: L C R, Side: L R, LFE
    Sampling rate : 48.0 KHz
    Bit depth : 24 bits
    Compression mode : Lossy
    Stream size : 1.23 GiB (10%)
    Title : Ó¢Óï
    Language : English




    وهناك صيغ أخرى ايضاً

    Battle Los Angeles 2011 1080p BluRay x264-CBGB

    Battle Los Angeles 2011 1080p BluRay DTS x264 D-Z0N3

    Battle Los Angeles 2011 PROPER MULTi 1080p BluRay x264-LOST



    كيف أستطيع التفريق بينها وانتقاء أفضل صيغة
    والوضوح هنا يهمني أكثر من الصوت

    أعتذر إن كان الموضوع مكرر أو سبق وأن أجبتم عليه
    وإن كان الموضوع مخالف فأرجوا حذفه

    موفقين



  2. #2
    Audiophile VideoChip عضو محترف الصورة الرمزية mks_95
    الـعـضـوية
    9
    الإنـضـمـام
    Feb 2011
    الإقـــامـــة
    السعودية
    المشاركات
    956
    قدم شـكـره
    439 مرة
    تـم شـكـره
    860 مرة في 212 مشاركة

    رد: إستفسار عن صيغ الأفلام الموجودة في مواقع التورنت !!




    هذا المسمى المبدأي اللي تبحث عنه للفلم
    Battle.Los.Angeles.2011.BluRay.1080p.DTS.x264 الباقي بعد المسمى للفلم بيكون لقروبات فك الأفلام...إذا فيه شيئ أنصحك تركز عليه وقت تحميل الفلم وما تتنازل عنه هو:

    Refersh rate 23.976fps

    Aspect ratio وهذي حسب شاشتك أو بروجكترك..

    إذا صيغة الصوت بالفلم DTS فخذه كامل كـ dts core 5.1 وبتعرفه من الـ Bitrate يكون 1510kbps


    فيه نقطة أنا بالعادة أركز عليها للحصول على أعلى جودة فيديو بالفلم وهي Video bitrate وتتقاس بالـ
    Mbps وبترتفع معك تلقائيا كل ما اخترت فلم حجمه كبير..

  3. قدم 4 من الأعضاء شكرهم إلى mks_95 على هذه المشاركة:


  4. #3
    عضو بـارز مشرف قسم الـ HTPC ، قسم الإستفسارات العام الصورة الرمزية HAMANY
    الـعـضـوية
    7
    الإنـضـمـام
    Feb 2011
    الإقـــامـــة
    البحرين - الرفاع
    المشاركات
    1,490
    قدم شـكـره
    1,501 مرة
    تـم شـكـره
    1,593 مرة في 497 مشاركة

    HDTV : Sony LED EX720 55-inches Projector : JVC DLA-RS49U Projector Screen : Elite Screens 16:9 Pull Down 106" HTPC : Intel i3
8GB RAM
24TB HDDs Consoles : Xbox One: HAMANY; PS4 AV-Receiver : YAMAHA RX-V1900 Amplifier : Emotiva XPA-3 HT Speakers : :
..:: YAMAHA ::..
Front [NS-777]
Center [NS-C515]
Surround [NS-333] Subwoofer : YAMAHA YST 1500

    رد: إستفسار عن صيغ الأفلام الموجودة في مواقع التورنت !!

    دام يهمك وضوح الصورة اول شيء ركز عليه هو ال Video Bitrate ..
    كل ما ارتفع صار افضل (ركز على ال Video و ليس Overall bit rate )

    ثاني شيء تراك الصوت ,, ال DTS-MA هو الأفضل، لكن تأكد انك بتستفيد منه قبل .. يبيلك امبليفاير يشغل هالصيغة

    بشكل عام CHD و WiKi نفس المستوى (مع اني افضل CHD)
    FLAWL3SS إصداراتهم غالبا تكون اعلى من الي فوق واحيانا نفس الشيء ..

  5. قدم 3 من الأعضاء شكرهم إلى HAMANY على هذه المشاركة:


  6. #4
    عضو مشارك الصورة الرمزية BADR
    الـعـضـوية
    108
    الإنـضـمـام
    Apr 2011
    الإقـــامـــة
    السعودية - الرياض
    المشاركات
    150
    قدم شـكـره
    193 مرة
    تـم شـكـره
    155 مرة في 45 مشاركة

    رد: إستفسار عن صيغ الأفلام الموجودة في مواقع التورنت !!

    بيض الله وجيهكم
    ما قصرتم

  7. #5
    عضو مجتهد الصورة الرمزية AboRayan01
    الـعـضـوية
    330
    الإنـضـمـام
    Jun 2011
    الإقـــامـــة
    السعودية - الدمام
    المشاركات
    614
    قدم شـكـره
    568 مرة
    تـم شـكـره
    464 مرة في 130 مشاركة

    رد: إستفسار عن صيغ الأفلام الموجودة في مواقع التورنت !!

    موضوع مهم جداً، عندي بعض الاستفسارات:
    1. هل نسخة 1080p.BluRay.DTSMA.dxva.x264-FLAWL3SS على سبيل المثال اذا طابقت الشروط الي ذكرتوها تكون نسخة طبق الأصل من السي دي الأصلي للموفي وبتعطي نفس دقة وجودة الصورة والصوت المحيطي؟
    2. اقتباس [ال DTS-MA هو الأفضل، لكن تأكد انك بتستفيد منه قبل .. يبيلك امبليفاير يشغل هالصيغة] ايش هو الامبليفاير ومنين احصل عليه؟


    ++ اتمنى احد يشرح لي معاني الكلمات الي باللون الأحمر على سبيل المثال في هذا الموفي:

    إقتباس :
    ************************************************** *********************************************
    Name Movie 1080p.BluRay.DTSMA.dxva.x264-FLAWL3SS
    ************************************************** *********************************************

    General Information

    Sample Included......: YES
    DXVA Compliant.......: YES
    Chapters Included....: YES
    Source...............: Blu-ray
    Container............: Matroska (MKV)
    Length...............: 1hours 32minutes
    Size.................: 13.9 GiB
    Total Bitrate........: 21.5 Mbps
    IMDb Information.....: http://www.imdb.com/title/tt0472399/
    Genre................: Action | Crime | Thriller


    Audio Info

    Codec................: DTSMA
    Bitrate..............: Variable
    kHz/bit..............: 48 kHz / 24-bit
    Channels.........6....:
    Language.............: English
    Subtitles............: English | English(Hearing Impaired) | Spanish


    Video Info

    Format...............: AVC
    Format Info..........: Advanced Video Codec
    Codec ID.............: V_MPEG4/ISO/AVC/x264
    Type.................: 1080p
    Format Profile Level.: High @ 4.1
    Resolution...........: 1920x800
    Aspect Ratio.........: 2.40:1 اشلون حسب شاشتي او بروجكتري؟
    Bitrate..............: 19.5 Mbps
    Framerate............: 23.976fps


    Encode Settings

    cabac=1 / ref=5 / deblock=1:-2:-2 / analyse=0x3:0x113 / me=esa / subme=10
    / psy=1 / psy_rd=1.05:0.10 / mixed_ref=1 / me_range=64 / chroma_me=1 /
    trellis=2 / 8x8dct=1 / cqm=0 / deadzone=21,11 / fast_pskip=1 / chroma_qp_offset=-3
    / threads=12 / sliced_threads=0 / nr=0 / decimate=1 / interlaced=0 /
    bluray_compat=0 / constrained_intra=0 / bframes=8 / b_pyramid=2 /
    b_adapt=2 / b_bias=0 / direct=1 / weightb=1 / open_gop=0 / weightp=2 /
    keyint=250 / keyint_min=24 / scenecut=50 / intra_refresh=0 / rc_lookahead=164 /
    rc=2pass / mbtree=1 / bitrate=17500 / ratetol=1.0 / qcomp=0.70 / qpmin=1 /
    qpmax=60 / qpstep=4 / cplxblur=20.0 / qblur=0.5 / vbv_maxrate=48000 /
    vbv_bufsize=40000 / nal_hrd=none / ip_ratio=1.40 / aq=1:1.20


    Plot
    Follows an elite hit man as he teaches his trade to an apprentice who has a
    connection to one of his previous victims

    Taglines: Someone has to fix the problems.

    Cast
    Jason Statham ... Arthur Bishop
    Ben Foster ... Steve McKenna
    Tony Goldwyn ... Dean
    Donald Sutherland ... Harry McKenna
    Jeff Chase ... Burke
    Mini Anden ... Sarah
    James Logan ... Jorge Lara
    Eddie J. Fernandez ... Lara's Guard (as Eddie Fernandez)
    Joshua Bridgewater ... Car Jacker
    John McConnell ... Vaughn
    Christa Campbell ... Kelly
    Joel Davis ... Husband
    Mark Nutter ... Mr. Finch (as Mark Anthony Nutter)
    Ardy Brent Carlson ... Bell Hop
    Lara Grice ... Mrs. Finch
    التعديل الأخير تم بواسطة mz_milan ; 26-06-2011 الساعة 03:29 AM السبب: يمنع طلب مواقع افلام ومايشمله .. شكراً

  8. #6
    عضو مشارك الصورة الرمزية sherlock holmes
    الـعـضـوية
    309
    الإنـضـمـام
    Jun 2011
    الإقـــامـــة
    السعودية - الجبيل
    المشاركات
    234
    قدم شـكـره
    165 مرة
    تـم شـكـره
    224 مرة في 38 مشاركة

    HDTV : panasonic TH-P50ST30 Monitor : SAMSUNG LED-BX1931N AV-Receiver : Vu+ Duo Amplifier : Onkyo HT-R590 HT Speakers : Onkyo HT-S5400 Subwoofer : Onkyo SKW-580

    رد: إستفسار عن صيغ الأفلام الموجودة في مواقع التورنت !!

    اخوي بالنسبة للسؤال 2 & 4 ممنوع بالمنتدي
    سو تعديل للمشاركة قبل ماينتبه رئيس القسم

  9. #7
    عضو مجتهد الصورة الرمزية AboRayan01
    الـعـضـوية
    330
    الإنـضـمـام
    Jun 2011
    الإقـــامـــة
    السعودية - الدمام
    المشاركات
    614
    قدم شـكـره
    568 مرة
    تـم شـكـره
    464 مرة في 130 مشاركة

    رد: إستفسار عن صيغ الأفلام الموجودة في مواقع التورنت !!

    للرفع اين انتم يا خبراءنا ؟

  10. #8
    عضو مجتهد الصورة الرمزية AboRayan01
    الـعـضـوية
    330
    الإنـضـمـام
    Jun 2011
    الإقـــامـــة
    السعودية - الدمام
    المشاركات
    614
    قدم شـكـره
    568 مرة
    تـم شـكـره
    464 مرة في 130 مشاركة

    رد: إستفسار عن صيغ الأفلام الموجودة في مواقع التورنت !!

    للرفع استفساري مهم وياليت احد يفيدنا ..
    التوقيع :
    سبحان الله وبحمده ... سبحان الله العظيم ... كلمتان خفيفتان على اللسان ثقيلتان في الميزان حبيبتان الى الرحمن!!
    من أكل طعاما ثم قال : الحمد لله الذي أطعمني هذا الطعام ورزقنيه من غير حول مني ولا قوة ... غفر له ما تقدم من ذنبه!!
    My Home Theater: Panasonic TC-P 55 VT30 (2011) : PS3 PAL.AUDIO : Onkyo HT-RC360 7.2-Channel : SPEAKERS: F KEF IQ90 x2, C IQ60, Su IQ30 Black
    HTPC Case: SilverStone LC10B E - IntelCore i5 - GeForce GT430 - DDR3 Corsair8GB - HDSSD: Crucial64GB HD3TBx2 - Moth:ASUS P8P67LE
    My Best MPC: XBMC

  11. #9
    عضو بـارز مشرف قسم الـ HTPC ، قسم الإستفسارات العام الصورة الرمزية HAMANY
    الـعـضـوية
    7
    الإنـضـمـام
    Feb 2011
    الإقـــامـــة
    البحرين - الرفاع
    المشاركات
    1,490
    قدم شـكـره
    1,501 مرة
    تـم شـكـره
    1,593 مرة في 497 مشاركة

    HDTV : Sony LED EX720 55-inches Projector : JVC DLA-RS49U Projector Screen : Elite Screens 16:9 Pull Down 106" HTPC : Intel i3
8GB RAM
24TB HDDs Consoles : Xbox One: HAMANY; PS4 AV-Receiver : YAMAHA RX-V1900 Amplifier : Emotiva XPA-3 HT Speakers : :
..:: YAMAHA ::..
Front [NS-777]
Center [NS-C515]
Surround [NS-333] Subwoofer : YAMAHA YST 1500

    رد: إستفسار عن صيغ الأفلام الموجودة في مواقع التورنت !!

    إقتباس :
    هل نسخة 1080p.BluRay.DTSMA.dxva.x264-FLAWL3SS على سبيل المثال اذا طابقت الشروط الي ذكرتوها تكون نسخة طبق الأصل من السي دي الأصلي للموفي وبتعطي نفس دقة وجودة الصورة والصوت المحيطي؟
    تتطابق في الصوت ( اذا كان DTS-MA او TrueHD)
    لكن الصورة تختلف .. الدسك الأصلي يكون حجمه 45 تقريبا ونازل ..
    الإختلاف في الصورة يتلاحضه في الشاشات الكبير .. البروجكتر مثلا.


    إقتباس :
    اقتباس [ال DTS-MA هو الأفضل، لكن تأكد انك بتستفيد منه قبل .. يبيلك امبليفاير يشغل هالصيغة] ايش هو الامبليفاير ومنين احصل عليه؟
    الإمبليفاير او مايسمى بالرسيفر AVR (رسيفر الصوت والصورة وليس الدش)
    جوف هذا الموضوع
    http://www.avarab.com/vb/showthread.php?t=373

  12. تلقى HAMANY شكراً على هذه المشاركة من:


  13. #10
    عضو مجتهد الصورة الرمزية AboRayan01
    الـعـضـوية
    330
    الإنـضـمـام
    Jun 2011
    الإقـــامـــة
    السعودية - الدمام
    المشاركات
    614
    قدم شـكـره
    568 مرة
    تـم شـكـره
    464 مرة في 130 مشاركة

    رد: إستفسار عن صيغ الأفلام الموجودة في مواقع التورنت !!

    يعطيك الف عافية
    التوقيع :
    سبحان الله وبحمده ... سبحان الله العظيم ... كلمتان خفيفتان على اللسان ثقيلتان في الميزان حبيبتان الى الرحمن!!
    من أكل طعاما ثم قال : الحمد لله الذي أطعمني هذا الطعام ورزقنيه من غير حول مني ولا قوة ... غفر له ما تقدم من ذنبه!!
    My Home Theater: Panasonic TC-P 55 VT30 (2011) : PS3 PAL.AUDIO : Onkyo HT-RC360 7.2-Channel : SPEAKERS: F KEF IQ90 x2, C IQ60, Su IQ30 Black
    HTPC Case: SilverStone LC10B E - IntelCore i5 - GeForce GT430 - DDR3 Corsair8GB - HDSSD: Crucial64GB HD3TBx2 - Moth:ASUS P8P67LE
    My Best MPC: XBMC

  14. #11
    عضو مجتهد الصورة الرمزية AboRayan01
    الـعـضـوية
    330
    الإنـضـمـام
    Jun 2011
    الإقـــامـــة
    السعودية - الدمام
    المشاركات
    614
    قدم شـكـره
    568 مرة
    تـم شـكـره
    464 مرة في 130 مشاركة

    رد: إستفسار عن صيغ الأفلام الموجودة في مواقع التورنت !!

    ++ اتمنى احد يشرح لي معاني الكلمات الي باللون الأحمر على سبيل المثال في هذا الموفي:

    إقتباس :
    ************************************************** *********************************************
    Name Movie 1080p.BluRay.DTSMA.dxva.x264-FLAWL3SS
    ************************************************** *********************************************

    General Information

    Sample Included......: YES
    DXVA Compliant.......: YES
    Chapters Included....: YES
    Source...............: Blu-ray
    Container............: Matroska (MKV)
    Length...............: 1hours 32minutes
    Size.................: 13.9 GiB
    Total Bitrate........: 21.5 Mbps
    IMDb Information.....: http://www.imdb.com/title/tt0472399/
    Genre................: Action | Crime | Thriller


    Audio Info

    Codec................: DTSMA
    Bitrate..............: Variable
    kHz/bit..............: 48 kHz / 24-bit
    Channels.........6....:
    Language.............: English
    Subtitles............: English | English(Hearing Impaired) | Spanish


    Video Info

    Format...............: AVC
    Format Info..........: Advanced Video Codec
    Codec ID.............: V_MPEG4/ISO/AVC/x264
    Type.................: 1080p
    Format Profile Level.: High @ 4.1
    Resolution...........: 1920x800
    Aspect Ratio.........: 2.40:1 اشلون حسب شاشتي او بروجكتري؟
    Bitrate..............: 19.5 Mbps
    Framerate............: 23.976fps


    Encode Settings

    cabac=1 / ref=5 / deblock=1:-2:-2 / analyse=0x3:0x113 / me=esa / subme=10
    / psy=1 / psy_rd=1.05:0.10 / mixed_ref=1 / me_range=64 / chroma_me=1 /
    trellis=2 / 8x8dct=1 / cqm=0 / deadzone=21,11 / fast_pskip=1 / chroma_qp_offset=-3
    / threads=12 / sliced_threads=0 / nr=0 / decimate=1 / interlaced=0 /
    bluray_compat=0 / constrained_intra=0 / bframes=8 / b_pyramid=2 /
    b_adapt=2 / b_bias=0 / direct=1 / weightb=1 / open_gop=0 / weightp=2 /
    keyint=250 / keyint_min=24 / scenecut=50 / intra_refresh=0 / rc_lookahead=164 /
    rc=2pass / mbtree=1 / bitrate=17500 / ratetol=1.0 / qcomp=0.70 / qpmin=1 /
    qpmax=60 / qpstep=4 / cplxblur=20.0 / qblur=0.5 / vbv_maxrate=48000 /
    vbv_bufsize=40000 / nal_hrd=none / ip_ratio=1.40 / aq=1:1.20


    Plot
    Follows an elite hit man as he teaches his trade to an apprentice who has a
    connection to one of his previous victims

    Taglines: Someone has to fix the problems.

    Cast
    Jason Statham ... Arthur Bishop
    Ben Foster ... Steve McKenna
    Tony Goldwyn ... Dean
    Donald Sutherland ... Harry McKenna
    Jeff Chase ... Burke
    Mini Anden ... Sarah
    James Logan ... Jorge Lara
    Eddie J. Fernandez ... Lara's Guard (as Eddie Fernandez)
    Joshua Bridgewater ... Car Jacker
    John McConnell ... Vaughn
    Christa Campbell ... Kelly
    Joel Davis ... Husband
    Mark Nutter ... Mr. Finch (as Mark Anthony Nutter)
    Ardy Brent Carlson ... Bell Hop
    Lara Grice ... Mrs. Finch
    التوقيع :
    سبحان الله وبحمده ... سبحان الله العظيم ... كلمتان خفيفتان على اللسان ثقيلتان في الميزان حبيبتان الى الرحمن!!
    من أكل طعاما ثم قال : الحمد لله الذي أطعمني هذا الطعام ورزقنيه من غير حول مني ولا قوة ... غفر له ما تقدم من ذنبه!!
    My Home Theater: Panasonic TC-P 55 VT30 (2011) : PS3 PAL.AUDIO : Onkyo HT-RC360 7.2-Channel : SPEAKERS: F KEF IQ90 x2, C IQ60, Su IQ30 Black
    HTPC Case: SilverStone LC10B E - IntelCore i5 - GeForce GT430 - DDR3 Corsair8GB - HDSSD: Crucial64GB HD3TBx2 - Moth:ASUS P8P67LE
    My Best MPC: XBMC

  15. #12
    عضو بـارز مشرف قسم الـ HTPC ، قسم الإستفسارات العام الصورة الرمزية HAMANY
    الـعـضـوية
    7
    الإنـضـمـام
    Feb 2011
    الإقـــامـــة
    البحرين - الرفاع
    المشاركات
    1,490
    قدم شـكـره
    1,501 مرة
    تـم شـكـره
    1,593 مرة في 497 مشاركة

    HDTV : Sony LED EX720 55-inches Projector : JVC DLA-RS49U Projector Screen : Elite Screens 16:9 Pull Down 106" HTPC : Intel i3
8GB RAM
24TB HDDs Consoles : Xbox One: HAMANY; PS4 AV-Receiver : YAMAHA RX-V1900 Amplifier : Emotiva XPA-3 HT Speakers : :
..:: YAMAHA ::..
Front [NS-777]
Center [NS-C515]
Surround [NS-333] Subwoofer : YAMAHA YST 1500

    رد: إستفسار عن صيغ الأفلام الموجودة في مواقع التورنت !!

    إقتباس :
    DTSMA
    DTS = الصوت العادي
    DTS-MA = Master Audio الصوت المتطور الخاص بالبلوري .. وضوحة أعلى، وماتستفيد منه الا اذا عندك رسيفر يدعم هالصيغة وسماعات ممتازة

    -----------------------------

    إقتباس :
    Variable
    ال DTS العادي يكون وضوحة او ال Bitrate ماله ثابت على 1.5 ميجابت/ثانية
    اما ال DTS-MA فوضوحة موثابت على نقطة فنقول له متغير (Variable) .. من ال 0 ميجا الى 24.5 ميجا
    والمتوسط لل MA عادة يكون بين ال 3 ميجا الى 4.6 ميجا
    اما ال TrueHD يصل الى 18 ميجا و المتوسط عادة بين ال 3 ميجا الى 5.3 ميجا تقريبا

    -----------------------------

    إقتباس :
    kHz/bit..............: 48 kHz / 24-bit
    تابعة لل Sampling Rate وشوي معقدة..
    ماعليك منها في البلوري نقريبا هالرقام ثابتة

    -----------------------------

    إقتباس :
    Channels.........6

    القنوات السمعية ..
    5 سماعات + سبوفر واحد = 6 قنوات

    -----------------------------

    إقتباس :
    Format Profile Level.: High @ 4.1
    شوي معقد بس بحاول اشرح بإختصار
    ال
    Profile Level وصل حاليا 5.1 لكن الي يستعملونه في البلوري هو 4.1 فقط (الي اعلى يستعملونهم في كامرات ال Imax)

    Level 4.1 حجم استيعابة 50 ميجا/ثانية .. هذا الحجم شامل الصوت والصورة ..
    مو شرط يكون 50 ميجا طول الفلم ,, الوضوح يتحرك لكن ما يتعدى ال 50 ..

    level 5.1 يوصل 240 ميجا !

    -----------------------------

    إقتباس :
    Aspect Ratio.........: 2.40:1


    النسبة بين طول و عرض الفيديو .. (height and width)
    لو كان الرزليوشن 1920x1080 .. اقسم ال 1920 على 1080 وراح تحصل النسبة (Ratio)
    1920 / 1080 راح يكون 1.78 او بلغة اخرى 1.78:1

    اذا كان الرزليوشن 1920x800 .. النسبة بتكون 2.4 او 2.40:1

    لكن حط في بالك ان المستطيل الأسود الي تحت وفوق الفلم ما ينحسب ..
    البلوري الأصلي دائما يكون 1920x1080 لأن المستطيل الأسود مدمج معاه (Letter Box)
    ممكن تدخل Bluray.com او imdb.com وتجوف النسبة كم ..
    او اذا حملته Bluray Rip اغلب الجروبات يحذفون الزوائد

    -----------------------------

    إقتباس :
    Bitrate

    Video Bitrate = وضوح الصورة فقط
    Over all Bitrate = وضوح الصورة + الأصوات + اذا فيه ملفات ترجمة

    الي مأشر عليه هذا وضوح الصورة

    -----------------------------

    إقتباس :
    Framerate


    الفيديو عبارة عن صور تتحرك بسرعة كبيرة .. فعينك تترجم هذي الصور الى فيديو
    كل صورة عبارة عن Frame ..
    ال Framerate هو عدد الصور الي تنعرض خلال الثانية الوحدة ..
    لو 60 صورة في الثانية ال Framerate بساوي 60FPS
    Frames Per Second

    يمكن تسأل عن الكسر في 23.976 ..
    لأن عدد الصور غير متساوي في كل ثانية .. مرة 23 ومرات اكثر 24
    لما حسبو المتوسط طلع 23.976

    -----------------------------

    اي استفسار تفضل


  16. #13
    عضو مشارك الصورة الرمزية M B T 3 D
    الـعـضـوية
    285
    الإنـضـمـام
    May 2011
    الإقـــامـــة
    Namibia
    المشاركات
    193
    قدم شـكـره
    295 مرة
    تـم شـكـره
    111 مرة في 45 مشاركة

    رد: إستفسار عن صيغ الأفلام الموجودة في مواقع التورنت !!

    اشكر ابو ريان على حرصه في فهم ماهية الاصوت وخصائصها وعلى طرحه التساؤلات اللي تقريبا ً تهمنا كلنا

    وكل الشكر لك يا حمني على الشرح والمعلومات إللي تثري فكر المستخدم العادي

    الله يعطيك العافيه

  17. #14
    عضو مجتهد الصورة الرمزية AboRayan01
    الـعـضـوية
    330
    الإنـضـمـام
    Jun 2011
    الإقـــامـــة
    السعودية - الدمام
    المشاركات
    614
    قدم شـكـره
    568 مرة
    تـم شـكـره
    464 مرة في 130 مشاركة

    رد: إستفسار عن صيغ الأفلام الموجودة في مواقع التورنت !!

    تسلم تسلم يدينك على المعلومات القيمة انا حرصت اسأل لاني شاري هذا الريسيفر http://www.us.onkyo.com/model.cfm?m=...s=Receiver&p=f وابي استفيد من كل امكانياته وللحين ما شغلته منتظر وصول السماعات ..
    الريسيفر يدعم True HD + DTS-HD Master Audio واعتقد امكانياته قوية هالريسيفر بل ممكن اركب عليه 2 سبووفر # Channels 7.2 ، استفدت من معلوماتك الكثير وعندي استفسار أخير
    إقتباس :
    ال DTS العادي يكون وضوحة او ال Bitrate ماله ثابت على 1.5 ميجابت/ثانية
    اما ال DTS-MA فوضوحة موثابت على نقطة فنقول له متغير (Variable) .. من ال 0 ميجا الى 24.5 ميجا
    والمتوسط لل MA عادة يكون بين ال 3 ميجا الى 4.6 ميجا
    اما ال TrueHD يصل الى 18 ميجا و المتوسط عادة بين ال 3 ميجا الى 5.3 ميجا تقريبا
    ايش تقصد بالمتوسط ؟ وهل افهم منك ان TrueHD أفضل من MA ؟
    التوقيع :
    سبحان الله وبحمده ... سبحان الله العظيم ... كلمتان خفيفتان على اللسان ثقيلتان في الميزان حبيبتان الى الرحمن!!
    من أكل طعاما ثم قال : الحمد لله الذي أطعمني هذا الطعام ورزقنيه من غير حول مني ولا قوة ... غفر له ما تقدم من ذنبه!!
    My Home Theater: Panasonic TC-P 55 VT30 (2011) : PS3 PAL.AUDIO : Onkyo HT-RC360 7.2-Channel : SPEAKERS: F KEF IQ90 x2, C IQ60, Su IQ30 Black
    HTPC Case: SilverStone LC10B E - IntelCore i5 - GeForce GT430 - DDR3 Corsair8GB - HDSSD: Crucial64GB HD3TBx2 - Moth:ASUS P8P67LE
    My Best MPC: XBMC

  18. #15
    محبكم محمد مؤسس الموقع الصورة الرمزية mz_milan
    الـعـضـوية
    1
    الإنـضـمـام
    Dec 2010
    الإقـــامـــة
    السعودية - جدة
    المشاركات
    6,644
    قدم شـكـره
    5,081 مرة
    تـم شـكـره
    6,924 مرة في 1,992 مشاركة

    HDTV : Panasonic TH-P65VT50 Projector Screen : Stewart Filmscreen
Screen Model (Luxus Model A ElectriScreen)
Screen Material (StudioTek 130 G3)
Screen Size (106 Inch)
Aspect Ratio (16:9) Multimedia Player : Xtreamer Prodigy HTPC : HTPC Case : Silverstone GD08B 
Motherboard : ASUS P8Z77-V DELUXE
CPU : Intel Core i7-3770K
GPU : GIGABYTE GeForce GTX 670
Memory : Corsair Vengeance 8GB total
SSD : Crucial 256 GB
HDD : Seagate Barracuda 12 TB total
Blu Ray Drive : Pioneer BDR-2207B5PK
Power Supply : Corsair HX850 Watts
CPU Cooler : Noctua NH-C14
Case Fans : Noctua NF-P12 Consoles : Xbox360 = KSA KING + PS3 = MZM9 AV-Receiver : Yamaha RX-A3010 HT Speakers : Polk Audio
Front (RTi A7)
Center (CSi A6)
Surround (FXi A6)
Surround Back (FXi A6) Subwoofer : SVS PB13-Ultra

    رد: إستفسار عن صيغ الأفلام الموجودة في مواقع التورنت !!

    ^^^

    ابو ريان ازيك

    حبيبي حمني يقصد بالمتوسط يعني متوسط الأفلام اكثرها تكون اصوات الـ HD حجمها مابين 3 الى 4.6 ميقا ... وهكذا

    والـ DTS HD والـ Dolby True HD الي يفرق بينهم نوعية الضغط ولا الصوت قريبين من بعض جداً وصعب تفرق بينهم الا اذا كنت خبير بهالشي واجهزتك الصوتيه مميزه وحساسه ويمكن الفرق مايزيد عن 5%

    لكن ممكن تجي تقول صوت هالفلم الـ DTS HD في هالفلم افضل من صوت Dolby True HD في هذاك الفلم .... السبب اكيد بيكون من الشركه المنتجه وايضاً حجم نفس البت ريت للصوت نفسه ... والله اعلم

    صحح لي يا حمني اذا اخطيت ياغالي
    التوقيع :
    أقم صلاتك قبل مماتك

    هل تريد الراحه ؟ تفضل هنا

    قد يتوقف البعض عن مساعدة الجميع ، إذا توقف الجميع عن مساعدة البعض !
    أي تجربة أو تقرير أو معلومة تضيفها إلى الملتقى هي مساهمة منك في مساعدة غيرك ، ودعم لإستمرار الموقع في مساعدتك مستقبلاً .

  19. قدم 4 من الأعضاء شكرهم إلى mz_milan على هذه المشاركة:


  20. #16
    عضو مشارك الصورة الرمزية M B T 3 D
    الـعـضـوية
    285
    الإنـضـمـام
    May 2011
    الإقـــامـــة
    Namibia
    المشاركات
    193
    قدم شـكـره
    295 مرة
    تـم شـكـره
    111 مرة في 45 مشاركة

    رد: إستفسار عن صيغ الأفلام الموجودة في مواقع التورنت !!

    محمد كلامك صحيح
    لأني جربت نزلت فلم حجمه 19GB وصيغة الصوت مكتوب DTS-HD MA
    شغلته ماحسيت بفرق بينه وبين النسخه إللي كانت موجوده عندي من قبل وحجمها 4,37GB
    وجربت افلام صيغ الصوت فيها Dolby Digtal ونفس الشئ الصوت محيطي وزي بعض
    يمكن المسأله مثل ماتفضلت تعتمد على حساسية وتطور المسارح المنزليه ودقتها والله العالم

  21. #17
    عضو مجتهد الصورة الرمزية AboRayan01
    الـعـضـوية
    330
    الإنـضـمـام
    Jun 2011
    الإقـــامـــة
    السعودية - الدمام
    المشاركات
    614
    قدم شـكـره
    568 مرة
    تـم شـكـره
    464 مرة في 130 مشاركة

    رد: إستفسار عن صيغ الأفلام الموجودة في مواقع التورنت !!

    تسلم يا محمد يعني افهم منك انه الحين الموفي الي حجمه 20 جيجا مثلاً حجم الصوت المحيطي والمؤثرات والشغل هذا كله ياسوي من حجم الموفي 3 الى 4.6 ميقا فقط من الـ 20 جيجا!! ... والباقي هو حجم الصور الي يتكون منها الموفي؟
    التوقيع :
    سبحان الله وبحمده ... سبحان الله العظيم ... كلمتان خفيفتان على اللسان ثقيلتان في الميزان حبيبتان الى الرحمن!!
    من أكل طعاما ثم قال : الحمد لله الذي أطعمني هذا الطعام ورزقنيه من غير حول مني ولا قوة ... غفر له ما تقدم من ذنبه!!
    My Home Theater: Panasonic TC-P 55 VT30 (2011) : PS3 PAL.AUDIO : Onkyo HT-RC360 7.2-Channel : SPEAKERS: F KEF IQ90 x2, C IQ60, Su IQ30 Black
    HTPC Case: SilverStone LC10B E - IntelCore i5 - GeForce GT430 - DDR3 Corsair8GB - HDSSD: Crucial64GB HD3TBx2 - Moth:ASUS P8P67LE
    My Best MPC: XBMC

  22. #18
    محبكم محمد مؤسس الموقع الصورة الرمزية mz_milan
    الـعـضـوية
    1
    الإنـضـمـام
    Dec 2010
    الإقـــامـــة
    السعودية - جدة
    المشاركات
    6,644
    قدم شـكـره
    5,081 مرة
    تـم شـكـره
    6,924 مرة في 1,992 مشاركة

    HDTV : Panasonic TH-P65VT50 Projector Screen : Stewart Filmscreen
Screen Model (Luxus Model A ElectriScreen)
Screen Material (StudioTek 130 G3)
Screen Size (106 Inch)
Aspect Ratio (16:9) Multimedia Player : Xtreamer Prodigy HTPC : HTPC Case : Silverstone GD08B 
Motherboard : ASUS P8Z77-V DELUXE
CPU : Intel Core i7-3770K
GPU : GIGABYTE GeForce GTX 670
Memory : Corsair Vengeance 8GB total
SSD : Crucial 256 GB
HDD : Seagate Barracuda 12 TB total
Blu Ray Drive : Pioneer BDR-2207B5PK
Power Supply : Corsair HX850 Watts
CPU Cooler : Noctua NH-C14
Case Fans : Noctua NF-P12 Consoles : Xbox360 = KSA KING + PS3 = MZM9 AV-Receiver : Yamaha RX-A3010 HT Speakers : Polk Audio
Front (RTi A7)
Center (CSi A6)
Surround (FXi A6)
Surround Back (FXi A6) Subwoofer : SVS PB13-Ultra

    رد: إستفسار عن صيغ الأفلام الموجودة في مواقع التورنت !!

    ^^^

    لا مو صحيح المفروض من 3 الى 4 قيقا مو ميقا

    اسف كتبت نعم لاني احسبك تقصد قيقا مو ميقا اسف تسرعت بالاجابه من غير ماقرى الرد بشكل كامل

    وفق الله الجميع
    التعديل الأخير تم بواسطة mz_milan ; 24-07-2011 الساعة 02:05 AM
    التوقيع :
    أقم صلاتك قبل مماتك

    هل تريد الراحه ؟ تفضل هنا

    قد يتوقف البعض عن مساعدة الجميع ، إذا توقف الجميع عن مساعدة البعض !
    أي تجربة أو تقرير أو معلومة تضيفها إلى الملتقى هي مساهمة منك في مساعدة غيرك ، ودعم لإستمرار الموقع في مساعدتك مستقبلاً .

  23. #19
    عضو بـارز مشرف قسم الـ HTPC ، قسم الإستفسارات العام الصورة الرمزية HAMANY
    الـعـضـوية
    7
    الإنـضـمـام
    Feb 2011
    الإقـــامـــة
    البحرين - الرفاع
    المشاركات
    1,490
    قدم شـكـره
    1,501 مرة
    تـم شـكـره
    1,593 مرة في 497 مشاركة

    HDTV : Sony LED EX720 55-inches Projector : JVC DLA-RS49U Projector Screen : Elite Screens 16:9 Pull Down 106" HTPC : Intel i3
8GB RAM
24TB HDDs Consoles : Xbox One: HAMANY; PS4 AV-Receiver : YAMAHA RX-V1900 Amplifier : Emotiva XPA-3 HT Speakers : :
..:: YAMAHA ::..
Front [NS-777]
Center [NS-C515]
Surround [NS-333] Subwoofer : YAMAHA YST 1500

    رد: إستفسار عن صيغ الأفلام الموجودة في مواقع التورنت !!

    لا يا ابو ريان .. في فرق بين الوضوح و الحجم
    الوضوح او يسمى بال Bitrate ينحسب بال Mbps او ميجابت لكل ثانية (وهنا ايضا فيه فرق بين الميجابايت و الميجابت)

    اما الحجم فهو الحجم الكلي .. وينحسب بال GB او الجيجا بايت

    اذ بنقارن بين حجم الصورة والصوت (في البلوري الأصلي) مثلا فلم Master And Commander
    الصورة حجمها تقريبا 29 جيجابايت
    الصوت حجمه تقريبا 3.5 جيجابايت

    اما وضوح الصورة والصوت (في فلم Master And Commander) بلوري اصلي
    وضوح الصورة 30.8 Mbps (ميجابت في الثانية)
    وضوح الصوت 2.9 Mbps (ميجابت في الثانية)

    الوضوح الكلي
    Overall Bitrate = 33.7 Mbps

    لي رجعة لهالسؤال لما افضى
    إقتباس :
    ايش تقصد بالمتوسط ؟ وهل افهم منك ان TrueHD أفضل من MA ؟
    كود:
    General
    Complete name                    : Master.and.Commander.Blu-ray.REMUX.m2ts
    Format                           : BDAV
    Format/Info                      : Blu-ray Video
    File size                        : 32.5 GiB
    Duration                         : 2h 18mn
    Overall bit rate                 : 33.7 Mbps
    Maximum Overall bit rate         : 35.5 Mbps
    
    
    Video
    Format                           : AVC
    Format/Info                      : Advanced Video Codec
    Format profile                   : High@L4.1
    Format settings, CABAC           : Yes
    Format settings, ReFrames        : 3 frames
    Codec ID                         : 27
    Duration                         : 2h 18mn
    Bit rate mode                    : Variable
    Bit rate                         : 30.8 Mbps
    Maximum bit rate                 : 40.0 Mbps
    Width                            : 1 920 pixels
    Height                           : 1 080 pixels
    Display aspect ratio             : 16:9
    Frame rate                       : 23.976 fps
    Color space                      : YUV
    Chroma subsampling               : 4:2:0
    Bit depth                        : 8 bits
    Scan type                        : Progressive
    Bits/(Pixel*Frame)               : 0.619
    Stream size                      : 29.7 GiB (91%)
    
    
    Audio
    Format                           : DTS
    Format/Info                      : Digital Theater Systems
    Format profile                   : MA / Core
    Muxing mode                      : Stream extension
    Codec ID                         : 134
    Duration                         : 2h 18mn
    Bit rate mode                    : Variable
    Bit rate                         : 1 561 Kbps / 1 510 Kbps
    Channel(s)                       : 6 channels
    Channel positions                : Front: L C R, Side: L R, LFE
    Sampling rate                    : 48.0 KHz
    Bit depth                        : 24 bits
    Compression mode                 : Lossless / Lossy
    Delay relative to video          : 3ms
    Language                         : English

  24. قدم 9 من الأعضاء شكرهم إلى HAMANY على هذه المشاركة:


  25. #20
    DIY عضو محترف الصورة الرمزية TrUTh81
    الـعـضـوية
    6
    الإنـضـمـام
    Feb 2011
    الإقـــامـــة
    السعودية - الخبر
    المشاركات
    379
    قدم شـكـره
    390 مرة
    تـم شـكـره
    575 مرة في 99 مشاركة

    HDTV : Samsung 55” ES8000 Series 8 Projector : Sony VPL-HW50ES Projector Screen : AVC 119" Tensioned Motorized Monitor : HP 22" HTPC : Case: MONCASO 320
 Motherboard: Asus P8 Z77-M Pro
 Intel Core i7
Kingston Hyper X Plug n Play 8 GB 1600MHz DDR3
Crucial 128 GB m4
Blu-Ray  Lite-On iHBS212 12x Consoles : PS4 ,Xbox One AV-Receiver : Yamaha RX-V3060 Amplifier : Emotiva XPA-3 HT Speakers : 7.2.4 Yamaha
Front 2 x (NS-777) Center (NS-C515) Surr B (4 x NS-333)Surr (2 x NS-F210 Atmos (4 x Bose Acoustimass 10 ) Subwoofer : Yamaha YST-SW1500

    رد: إستفسار عن صيغ الأفلام الموجودة في مواقع التورنت !!

    ^^^^
    شكراً على المعلومات القيمة

إعلانات