إعلانات

الموضوع: استفسار عن طريقة اخذ افضل نسخه + نسخ البلوراي

النتائج 1 إلى 3 من 3
  1. #1
    عضو جديد

    الـعـضـوية
    3149
    الإنـضـمـام
    Sep 2013
    الإقـــامـــة
    السعودية - المدينة المنورة
    المشاركات
    12
    قدم شـكـره
    4 مرة
    تـم شـكـره
    4 مرة في 1 مشاركة

    استفسار عن طريقة اخذ افضل نسخه + نسخ البلوراي

    السلام عليكم ورحمة الله وبركاته
    كيف حالكم ان شاء الله بخيير
    1: عندي مشكلة حملت فيلم بلوراي وطلع لي بصيغة iso
    حرقة الفيلم على قرص بلوراي ما نفع
    انا ابي اشوف الفيلم بافضل جودة
    2 :بعد فك الضغط طلع لي عدة ملفات طبعا لقيت عدة ملفات ( طبعا الحجم الاكبر هو الفيلم بس هل هذي اعدادات الفيلم بافضل جودة ؟؟

    General
    ID : 0
    Complete name : I:\movis\FILM\the hunger\The.Hunger.Game.m2ts
    Format : BDAV
    Format/Info : Blu-ray Video
    File size : 13.9 GiB
    Duration : 1h 37mn
    Overall bit rate : 20.5 Mbps
    Maximum Overall bit rate : 48.0 Mbps

    Video
    ID : 4113 (0x1011)
    Menu ID : 1 (0x1)
    Format : AVC
    Format/Info : Advanced Video Codec
    Format profile : High@L4.1
    Format settings, CABAC : Yes
    Format settings, ReFrames : 4 frames
    Duration : 1h 37mn
    Bit rate : 18.8 Mbps
    Width : 1 920 pixels
    Height : 1 080 pixels
    Display aspect ratio : 16:9
    Frame rate : 23.976 fps
    Resolution : 24 bits
    Colorimetry : 40
    Scan type : Progressive
    Bits/(Pixel*Frame) : 0.379
    Stream size : 12.8 GiB (92%)

    Audio #1
    ID : 4352 (0x1100)
    Menu ID : 1 (0x1)
    Format : AC-3
    Format/Info : Audio Coding 3
    Duration : 1h 37mn
    Bit rate mode : Constant
    Bit rate : 640 Kbps
    Channel(s) : 6 channels
    Channel positions : Front: L C R, Surround: L R, LFE
    Sampling rate : 48.0 KHz
    Stream size : 444 MiB (3%)

    Audio #2
    ID : 4353 (0x1101)
    Menu ID : 1 (0x1)
    Format : AC-3
    Format/Info : Audio Coding 3
    Format profile : Dolby Digital
    Duration : 1h 37mn
    Bit rate mode : Constant
    Bit rate : 224 Kbps
    Channel(s) : 2 channels
    Channel positions : L R
    Sampling rate : 48.0 KHz
    Stream size : 156 MiB (1%)

    Text #1
    ID : 4608 (0x1200)
    Menu ID : 1 (0x1)
    Format : PGS

    Text #2
    ID : 4609 (0x1201)
    Menu ID : 1 (0x1)
    Format : PGS











  2. #2
    عضو مشارك الصورة الرمزية علي دحنان
    الـعـضـوية
    545
    الإنـضـمـام
    Aug 2011
    الإقـــامـــة
    السعودية - جازان
    المشاركات
    207
    قدم شـكـره
    71 مرة
    تـم شـكـره
    77 مرة في 40 مشاركة

    HDTV : VT30

    رد: استفسار عن طريقة اخذ افضل نسخه + نسخ البلوراي

    إذا تبغى تبحث عن نسخة صافية جدا ،، إبحث عن فيديوهات مواصفاتها كالتالي :
    remux
    Full HD
    ويكون الـBitrate فوق 4000 - 10000-17000- كل مازاد العدد كان صفاء الفلم اوضح أهم شيء في الفيديو الـBitrate كل ما زاد ، زاد وضوح الفيديو
    وعدد الإطارات في الثانية أكثر من 50 FPS
    انا اشوف العدد في الفلم الامنزله ---Bit rate : 640 Kbps قليل جدا كل ما زاد يكزن جودة الفلم افضل
    التوقيع :
    وليم والاس

  3. قدم 2 من الأعضاء شكرهم إلى علي دحنان على هذه المشاركة:


  4. #3
    عضو جديد

    الـعـضـوية
    3149
    الإنـضـمـام
    Sep 2013
    الإقـــامـــة
    السعودية - المدينة المنورة
    المشاركات
    12
    قدم شـكـره
    4 مرة
    تـم شـكـره
    4 مرة في 1 مشاركة

    رد: استفسار عن طريقة اخذ افضل نسخه + نسخ البلوراي

    إقتباس :
    المشاركة الأصلية كتبت بواسطة علي دحنان مشاهدة المشاركة
    إذا تبغى تبحث عن نسخة صافية جدا ،، إبحث عن فيديوهات مواصفاتها كالتالي :
    remux
    Full HD
    ويكون الـBitrate فوق 4000 - 10000-17000- كل مازاد العدد كان صفاء الفلم اوضح أهم شيء في الفيديو الـBitrate كل ما زاد ، زاد وضوح الفيديو
    وعدد الإطارات في الثانية أكثر من 50 FPS
    انا اشوف العدد في الفلم الامنزله ---Bit rate : 640 Kbps قليل جدا كل ما زاد يكزن جودة الفلم افضل
    مشكور اخوي علي على المعلومات

إعلانات