إعلانات

الموضوع: مشكلة مع اونيكو 5.1. بالصور الصور و التفاصيل

النتائج 1 إلى 2 من 2
  1. #1
    عضو جديد

    الـعـضـوية
    4489
    الإنـضـمـام
    Apr 2015
    الإقـــامـــة
    السعودية - جدة
    المشاركات
    1
    قدم شـكـره
    0 مرة
    تـم شـكـره
    0 مرة في 0 مشاركة

    مشكلة مع اونيكو 5.1. بالصور الصور و التفاصيل

    سلام عليكم


    مشكلة الصوت انه ما يشغل السمعات الجانبيه .. يعني يشفل الوسط و اليمين و اليسار .. اليمين الخلفي او الجانبي تشتغل علي انها يمين ايضا .. و نقس الشي مع اليسار


    يعني اليمين تشتغل ك ( يمين امامي و ايضا كيمين خلفي او جانبي) نفس الشي مع اليسار .. ما اعرف ليه ما تشتغل الخلفيات مع انه في الtest تكون شغاله و في اعدادات الريسفر تكون ايضا شغاله ..لكن اذا شغلت مقطع يوتويب ( الرابط تحت) ما تشتغل و يتم التعامل معاها من السماعات الامامية فقط


    حتي اني رجعت المسرح لضبط المصنع و مازلت نفس المشكلة


    اي اقتراحات ؟
    العاب بنات




    العاب بنات




    العاب بنات


    و هذا رابط الضوت للتجربة ( و غيره من المقاطع)
    https://www.youtube.com/watch?v=VeItlnhFBxw

  2. #2
    عضو مشارك الصورة الرمزية A7MAD-STYLE
    الـعـضـوية
    881
    الإنـضـمـام
    Nov 2011
    الإقـــامـــة
    السعودية - الرياض
    المشاركات
    122
    قدم شـكـره
    139 مرة
    تـم شـكـره
    51 مرة في 39 مشاركة

    HDTV : Samsung UA55F6100 Monitor : Dell U2713HM-IPS-LED HTPC : Asus Labtop N61JQ Consoles : PS3 AV-Receiver : Yamaha RX-V375 HT Speakers : Yamaha Package NS-P40 Subwoofer : Yamah NS-SW40

    رد: مشكلة مع اونيكو 5.1. بالصور الصور و التفاصيل

    أخوي اذا انت تشغل المقطع من اليوتيوب فما راح يعطيك التوزيع الصوتي اللي تتوقعه لأنه راح يشتغل المقطع على انه صوت ستريو قناتين صوتية فقط

    اللي عليك ان تحمل الملف كامل من الرابط اللي موجود في الوصف أسفل الفيديو اللي حاطه صاحب المقطع في نفس الصفحه ..
    ولو تقرأ الملاحظة اللي حاطها صاحب المقطع بتعرف المشكله وين

    هذا اقتباس من التعليق اللي حاطه وكذلك المواصفات للمقطع الصوتي

    I think YouTube currently does not support 5.1. So u can download this video from following link for free

    https://drive.google.com/file/d/0B4MO...

    After selecting the link Select FILE then click Download -or- Ctrl+S




    ------------------------------


    General
    -----------
    Format : AVI
    Format/Info : Audio Video Interleave
    File size : 8.02 MiB
    Duration : 1mn 17s
    Overall bit rate : 868 Kbps
    Writing application : VirtualDubMod 1.5.4.1 (build 2178/release)
    Writing library : VirtualDubMod build 2178/release

    Video
    --------
    Format : MPEG-4 Visual
    Codec ID : XVID
    Duration : 1mn 17s
    Bit rate : 411 Kbps
    Width : 720 pixels
    Height : 416 pixels
    Display aspect ratio : 1.731
    Frame rate : 29.970 fps
    Color space : YUV
    Chroma subsampling : 40
    Bit depth : 8 bits
    Scan type : Progressive
    Compression mode : Lossy
    Bits/(Pixel*Frame) : 0.046
    Stream size : 3.80 MiB (47%)
    Writing library : XviD 1.2.0.dev47 (UTC 2006-11-01)

    Audio
    --------
    Format : AC-3
    Format/Info : Audio Coding 3
    Mode extension : CM (complete main)
    Duration : 1mn 17s
    Bit rate mode : Constant
    Bit rate : 448 Kbps
    Channel(s) : 6 channels
    Channel positions : Front: L C R, Side: L R, LFE
    Sampling rate : 48.0 KHz
    Bit depth : 16 bits
    Compression mode : Lossy
    Stream size : 4.14 MiB (52%)


    بعد تحميلك للمقطع جرب تشغله بواسطة اي برنامج لتشغيل الأصوات يدعم الـ 5.1

    ورد علينا

إعلانات