إعلانات

الموضوع: شرح برنامج MediaInfo برنامج مميز في معرفة تفاصيل الأفلام

النتائج 1 إلى 13 من 13
  1. #1
    أبــو حـلـيـمـة عضو محترف الصورة الرمزية حافظ الود
    الـعـضـوية
    11
    الإنـضـمـام
    Feb 2011
    الإقـــامـــة
    السعودية - القنفذة
    المشاركات
    1,796
    قدم شـكـره
    1,569 مرة
    تـم شـكـره
    1,907 مرة في 462 مشاركة

    HDTV : panasonic TH-P50V20 Monitor : benq Disc Player : sony BDP-S360 Multimedia Player : HTPC HTPC : i3 540 
foxconn H55MXV LE 
samsong DDR3 2X2
GT 430 Consoles : PS3 AV-Receiver : RX-V565 HT Speakers : front // NS50F
cen&surNS-P60 Subwoofer : YST-SW030

    شرح برنامج MediaInfo برنامج مميز في معرفة تفاصيل الأفلام


    عبر هذا الموضوع سوف نعرض لواحد من اسهل و أخف البرامج التي تفيد في معرفة تفاصيل أي محتوى

    سواء كان فيديو أو مقطع صوتي أو صورة

    برنامج // MediaInfo



    شخصيا اعتمد على البرنامج في معرفة عدد الإطارات التي يتم عرض الصورة بها لأن ذلك مهم في عملية تعديل الترجمة للتوافق مع جهاز WD TV HD

    أولا // واجهة البرنامج



    1/ لفتح ملف ( فيلم او مقطع صوتي ...إلخ )
    2 / اختيار طرق العرض
    بعد اخيار الملف تظهر المعلومات الأساسية على النحو التالي :

    3- هنا تظهر معلومات الفيديو الأساسية
    4- مسار الصوت الأول ( اللغة + النوع DTS أو DD .... إلخ )
    5- مسار الصوت الثاني ( إن وجد )
    6- نوع الترجمة واللغة
    7 , 8 - لعرض أي ترجمات أخرى مضمنة في الفيلم

    طريقة العرض الأساسية



    1- معلومات عامة عن الملف
    النوع الحجم الملفات المضمنة ( صوت صورة نصوص )
    2- معلومات عن الفيديو ( معدل نقل البيانات + العرض خطوط الطول والعرض + معدل عرض الفريمات في الثانية )
    3- نوع المسار الصوتي
    4- لا توجد ترجمة نصية

    طرق العرض //

    لتغيير العرض



    أختر أولا // view

    ثم نوع العرض المفضل ( شخصيا اخترت tree = شجري )

    سوف يتم عرض معلومات الفيلم بشكل كامل ومفصل عبر أربعة تبويبات

    أولا // General



    ثانيا // video



    ثالثا // Audio



    خامسا // في حالة وجود ترجمات فإنها تعرض في تبويب مستقل بعد الصوت وفق ترتيبها في ملف الفيلم

    طريقة نسخ معلومات الفيلم كمستند نص

    من طرق العرض نختار ( text ) يمكن نسخ معلومات الفيلم كاملة عبر الطريقة الاعتيادية ( باستخدام الفأرة )

    ونستطيع لصقها في مستند نص أو في رد في موقع بسهولة




    لتحميل البرنامج بآخر نسخة

    أضغط هنا

    هذا الموضوع حصري لـ

    التعديل الأخير تم بواسطة F H D ; 12-11-2011 الساعة 12:07 AM
    التوقيع :


  2. #2
    give-and-take الصورة الرمزية F H D
    الـعـضـوية
    4
    الإنـضـمـام
    Feb 2011
    الإقـــامـــة
    السعودية
    المشاركات
    3,868
    قدم شـكـره
    4,075 مرة
    تـم شـكـره
    3,537 مرة في 1,033 مشاركة

    رد: شرح برنامج MediaInfo برنامج مميز في معرفة تفاصيل الأفلام

    تسلم يا أبو حليمة
    شرح رائع جداً مثل عوايدك
    الله يعطيك العافية

  3. #3
    أبــو حـلـيـمـة عضو محترف الصورة الرمزية حافظ الود
    الـعـضـوية
    11
    الإنـضـمـام
    Feb 2011
    الإقـــامـــة
    السعودية - القنفذة
    المشاركات
    1,796
    قدم شـكـره
    1,569 مرة
    تـم شـكـره
    1,907 مرة في 462 مشاركة

    HDTV : panasonic TH-P50V20 Monitor : benq Disc Player : sony BDP-S360 Multimedia Player : HTPC HTPC : i3 540 
foxconn H55MXV LE 
samsong DDR3 2X2
GT 430 Consoles : PS3 AV-Receiver : RX-V565 HT Speakers : front // NS50F
cen&surNS-P60 Subwoofer : YST-SW030

    رد: شرح برنامج MediaInfo برنامج مميز في معرفة تفاصيل الأفلام

    إقتباس :
    المشاركة الأصلية كتبت بواسطة فهد الأحمد مشاهدة المشاركة
    تسلم يا أبو حليمة
    شرح رائع جداً مثل عوايدك
    الله يعطيك العافية
    يا هلا والله بك أخي فهد

    أشكر لك مرورك ومشاركتك العطرة

    تحياتي لك

  4. #4
    Audiophile VideoChip عضو محترف الصورة الرمزية mks_95
    الـعـضـوية
    9
    الإنـضـمـام
    Feb 2011
    الإقـــامـــة
    السعودية
    المشاركات
    956
    قدم شـكـره
    439 مرة
    تـم شـكـره
    860 مرة في 212 مشاركة

    رد: شرح برنامج MediaInfo برنامج مميز في معرفة تفاصيل الأفلام

    شوف الفلم هذا على سبيل المثال Clash of the Titans

    http://whitefiles.com/wp-content/upl...cflawlss-1.jpg

    هذي معلومات النسخة اللي عندي ومطلعها عن طريق KM-player

    كود:
     L:\HD-Movies\Clash.Of.The.Titans.2010.BluRay.1080p.DTS.x264.dxva-EuReKA\Clash.Of.The.Titans.2010.BluRay.1080p.DTS.x264.dxva-EuReKA.mkv
       General
          Complete name : L:\HD-Movies\Clash.Of.The.Titans.2010.BluRay.1080p.DTS.x264.dxva-EuReKA\Clash.Of.The.Titans.2010.BluRay.1080p.DTS.x264.dxva-EuReKA.mkv
          Format : Matroska
          File size : 10.1 GiB
          Duration : 1h 46mn
          Overall bit rate : 13.6 Mbps
          Encoded date : UTC 2010-07-17 01:07:18
          Writing application : mkvmerge v4.1.1 ('Bouncin' Back') gemaakt op Jul  3 2010 22:54:08
          Writing library : libebml v1.0.0 + libmatroska v1.0.0
       Video #1
          ID : 1
          Format : AVC
          Format/Info : Advanced Video Codec
          Format profile : High@L4.1
          Format settings, CABAC : Yes
          Format settings, ReFrames : 5 frames
          Muxing mode : Container profile=Unknown@4.1
          Codec ID : V_MPEG4/ISO/AVC
          Duration : 1h 46mn
          Bit rate : 11.9 Mbps
          Nominal bit rate : 12.1 Mbps
          Width : 1 920 pixels
          Height : 800 pixels
          Display aspect ratio : 2.40:1
          Frame rate : 23.976 fps
          Resolution : 24 bits
          Colorimetry : 4:2:0
          Scan type : Progressive
          Bits/(Pixel*Frame) : 0.322
          Stream size : 8.78 GiB (87%)
          Title : x264 - 2 passes @ 11.9 Mbit
          Writing library : x264 core 100 r1659 57b2e56
          Encoding settings : cabac=1 / ref=5 / deblock=1:-4:-4 / analyse=0x3:0x113 / me=umh / subme=10 / psy=1 / psy_rd=1.00:0.20 / mixed_ref=1 / me_range=64 / chroma_me=1 / trellis=2 / 8x8dct=1 / cqm=0 / deadzone=21,11 / fast_pskip=0 / chroma_qp_offset=-3 / threads=12 / sliced_threads=0 / nr=0 / decimate=1 / interlaced=0 / constrained_intra=0 / bframes=5 / b_pyramid=2 / b_adapt=2 / b_bias=0 / direct=2 / weightb=1 / open_gop=0 / weightp=2 / keyint=250 / keyint_min=25 / scenecut=40 / intra_refresh=0 / rc=2pass / mbtree=0 / bitrate=12137 / ratetol=1.0 / qcomp=0.50 / qpmin=10 / qpmax=51 / qpstep=4 / cplxblur=20.0 / qblur=0.5 / ip_ratio=1.40 / pb_ratio=1.30 / aq=1:0.40
       Audio #2
          ID : 2
          Format : DTS
          Format/Info : Digital Theater Systems
          Codec ID : A_DTS
          Duration : 1h 46mn
          Bit rate mode : Constant
          Bit rate : 1 510 Kbps
          Channel(s) : 6 channels
          Channel positions : Front: L C R, Surround: L R, LFE
          Sampling rate : 48.0 KHz
          Resolution : 24 bits
          Stream size : 1.12 GiB (11%)
       Text #3
          ID : 3
          Format : UTF-8
          Codec ID : S_TEXT/UTF8
          Codec ID/Info : UTF-8 Plain Text
       Text #4
          ID : 4
          Format : UTF-8
          Codec ID : S_TEXT/UTF8
          Codec ID/Info : UTF-8 Plain Text
          Language : Spanish
       Text #5
          ID : 5
          Format : UTF-8
          Codec ID : S_TEXT/UTF8
          Codec ID/Info : UTF-8 Plain Text
          Language : French
       Text #6
          ID : 6
          Format : UTF-8
          Codec ID : S_TEXT/UTF8
          Codec ID/Info : UTF-8 Plain Text
          Language : Dutch

    إذا احتجت أدمج الترجمة مع برنامج XBMC احمل نفس نسخة الترجمة للفلم حتى يكون فيه توافق بين الإثنين. أو اني احمل أقرب نسخة ترجمة للقروب اللي محمل الفلم منه.. بأن تكون مثلا 1080p والـ Refresh rate يكون 23.976fps

    بس مع ذلك فيه تفاصيل ممتازة يظهرها البرنامج زي Color space أول مرة أعرف انها تظهر مع تفاصيل الفلم..

  5. قدم 2 من الأعضاء شكرهم إلى mks_95 على هذه المشاركة:


  6. #5
    عضو جديد

    الـعـضـوية
    67
    الإنـضـمـام
    Mar 2011
    الإقـــامـــة
    السعودية
    المشاركات
    13
    قدم شـكـره
    10 مرة
    تـم شـكـره
    0 مرة في 0 مشاركة

    HDTV : Panasonic Consoles : PS3 AV-Receiver : ONKYO 808 HT Speakers : Yamaha 777-444-333

    رد: شرح برنامج MediaInfo برنامج مميز في معرفة تفاصيل الأفلام

    برنامج تشكر علية
    والطيب مايجي منه الا كل شي طيب
    التوقيع :
    Audio = ONKIO TX-NR 808 FRONT 777, CENTER 444
    SUR333
    Video = Panasonic TH-P42G10P .PS3.iXtreamer.Sony DVD .

  7. #6
    أبــو حـلـيـمـة عضو محترف الصورة الرمزية حافظ الود
    الـعـضـوية
    11
    الإنـضـمـام
    Feb 2011
    الإقـــامـــة
    السعودية - القنفذة
    المشاركات
    1,796
    قدم شـكـره
    1,569 مرة
    تـم شـكـره
    1,907 مرة في 462 مشاركة

    HDTV : panasonic TH-P50V20 Monitor : benq Disc Player : sony BDP-S360 Multimedia Player : HTPC HTPC : i3 540 
foxconn H55MXV LE 
samsong DDR3 2X2
GT 430 Consoles : PS3 AV-Receiver : RX-V565 HT Speakers : front // NS50F
cen&surNS-P60 Subwoofer : YST-SW030

    رد: شرح برنامج MediaInfo برنامج مميز في معرفة تفاصيل الأفلام

    إقتباس :
    المشاركة الأصلية كتبت بواسطة mks_95 مشاهدة المشاركة
    شوف الفلم هذا على سبيل المثال Clash of the Titans



    هذي معلومات النسخة اللي عندي ومطلعها عن طريق KM-player

    كود:
     L:\HD-Movies\Clash.Of.The.Titans.2010.BluRay.1080p.DTS.x264.dxva-EuReKA\Clash.Of.The.Titans.2010.BluRay.1080p.DTS.x264.dxva-EuReKA.mkv
    General
    Complete name : L:\HD-Movies\Clash.Of.The.Titans.2010.BluRay.1080p.DTS.x264.dxva-EuReKA\Clash.Of.The.Titans.2010.BluRay.1080p.DTS.x264.dxva-EuReKA.mkv
    Format : Matroska
    File size : 10.1 GiB
    Duration : 1h 46mn
    Overall bit rate : 13.6 Mbps
    Encoded date : UTC 2010-07-17 01:07:18
    Writing application : mkvmerge v4.1.1 ('Bouncin' Back') gemaakt op Jul 3 2010 22:54:08
    Writing library : libebml v1.0.0 + libmatroska v1.0.0
    Video #1
    ID : 1
    Format : AVC
    Format/Info : Advanced Video Codec
    Format profile : High@L4.1
    Format settings, CABAC : Yes
    Format settings, ReFrames : 5 frames
    Muxing mode : Container profile=Unknown@4.1
    Codec ID : V_MPEG4/ISO/AVC
    Duration : 1h 46mn
    Bit rate : 11.9 Mbps
    Nominal bit rate : 12.1 Mbps
    Width : 1 920 pixels
    Height : 800 pixels
    Display aspect ratio : 2.40:1
    Frame rate : 23.976 fps
    Resolution : 24 bits
    Colorimetry : 4:2:0
    Scan type : Progressive
    Bits/(Pixel*Frame) : 0.322
    Stream size : 8.78 GiB (87%)
    Title : x264 - 2 passes @ 11.9 Mbit
    Writing library : x264 core 100 r1659 57b2e56
    Encoding settings : cabac=1 / ref=5 / deblock=1:-4:-4 / analyse=0x3:0x113 / me=umh / subme=10 / psy=1 / psy_rd=1.00:0.20 / mixed_ref=1 / me_range=64 / chroma_me=1 / trellis=2 / 8x8dct=1 / cqm=0 / deadzone=21,11 / fast_pskip=0 / chroma_qp_offset=-3 / threads=12 / sliced_threads=0 / nr=0 / decimate=1 / interlaced=0 / constrained_intra=0 / bframes=5 / b_pyramid=2 / b_adapt=2 / b_bias=0 / direct=2 / weightb=1 / open_gop=0 / weightp=2 / keyint=250 / keyint_min=25 / scenecut=40 / intra_refresh=0 / rc=2pass / mbtree=0 / bitrate=12137 / ratetol=1.0 / qcomp=0.50 / qpmin=10 / qpmax=51 / qpstep=4 / cplxblur=20.0 / qblur=0.5 / ip_ratio=1.40 / pb_ratio=1.30 / aq=1:0.40
    Audio #2
    ID : 2
    Format : DTS
    Format/Info : Digital Theater Systems
    Codec ID : A_DTS
    Duration : 1h 46mn
    Bit rate mode : Constant
    Bit rate : 1 510 Kbps
    Channel(s) : 6 channels
    Channel positions : Front: L C R, Surround: L R, LFE
    Sampling rate : 48.0 KHz
    Resolution : 24 bits
    Stream size : 1.12 GiB (11%)
    Text #3
    ID : 3
    Format : UTF-8
    Codec ID : S_TEXT/UTF8
    Codec ID/Info : UTF-8 Plain Text
    Text #4
    ID : 4
    Format : UTF-8
    Codec ID : S_TEXT/UTF8
    Codec ID/Info : UTF-8 Plain Text
    Language : Spanish
    Text #5
    ID : 5
    Format : UTF-8
    Codec ID : S_TEXT/UTF8
    Codec ID/Info : UTF-8 Plain Text
    Language : French
    Text #6
    ID : 6
    Format : UTF-8
    Codec ID : S_TEXT/UTF8
    Codec ID/Info : UTF-8 Plain Text
    Language : Dutch

    إذا احتجت أدمج الترجمة مع برنامج XBMC احمل نفس نسخة الترجمة للفلم حتى يكون فيه توافق بين الإثنين. أو اني احمل أقرب نسخة ترجمة للقروب اللي محمل الفلم منه.. بأن تكون مثلا 1080p والـ Refresh rate يكون 23.976fps

    بس مع ذلك فيه تفاصيل ممتازة يظهرها البرنامج زي Color space أول مرة أعرف انها تظهر مع تفاصيل الفلم..
    الـ KM-player استخدمته فترة وبعدين تركته واجهت بعض الصعوبات

    وبعد ما أخذت المسرح اصبح التشغيل عن طريق المشغلات

    لكني اعتمد على برنامج
    MpcStar


    في معاينة الأفلام وتضبيط الترجمة

    أحيانا ما تجد الترجمة المناسبة لنسخة الفيلم

    فأضطر اني انزل ترجمات DVDRip

    ومرة تصيب ومرة تخيب لكن في 60 % من الحالات تضبط معي

    بخصوص برنامج MediaInfo
    أنا مثل اللي اشترى باص سعة 65 راكب
    وما يحمل يوميا إلا 15 راكب فقط

    يعني ما استفدت من تفاصيل التفاصيل التي يخرجها البرنامج عن الفيلم

    بالمناسبة سمعت إشاعة أنك تحب الفيس ذا >>>

    تحياتي لك
    التعديل الأخير تم بواسطة F H D ; 11-07-2011 الساعة 09:19 AM
    التوقيع :

  8. #7
    أبــو حـلـيـمـة عضو محترف الصورة الرمزية حافظ الود
    الـعـضـوية
    11
    الإنـضـمـام
    Feb 2011
    الإقـــامـــة
    السعودية - القنفذة
    المشاركات
    1,796
    قدم شـكـره
    1,569 مرة
    تـم شـكـره
    1,907 مرة في 462 مشاركة

    HDTV : panasonic TH-P50V20 Monitor : benq Disc Player : sony BDP-S360 Multimedia Player : HTPC HTPC : i3 540 
foxconn H55MXV LE 
samsong DDR3 2X2
GT 430 Consoles : PS3 AV-Receiver : RX-V565 HT Speakers : front // NS50F
cen&surNS-P60 Subwoofer : YST-SW030

    رد: شرح برنامج MediaInfo برنامج مميز في معرفة تفاصيل الأفلام

    إقتباس :
    المشاركة الأصلية كتبت بواسطة sosomo مشاهدة المشاركة
    برنامج تشكر علية
    والطيب مايجي منه الا كل شي طيب
    الله يحييك يا غالي

    وشكرا على المشاركة

  9. #8
    Audiophile VideoChip عضو محترف الصورة الرمزية mks_95
    الـعـضـوية
    9
    الإنـضـمـام
    Feb 2011
    الإقـــامـــة
    السعودية
    المشاركات
    956
    قدم شـكـره
    439 مرة
    تـم شـكـره
    860 مرة في 212 مشاركة

    رد: شرح برنامج MediaInfo برنامج مميز في معرفة تفاصيل الأفلام



    غلطان اللي يقولك شيئ يكرهه
    التعديل الأخير تم بواسطة F H D ; 11-07-2011 الساعة 09:19 AM

  10. #9
    أبــو حـلـيـمـة عضو محترف الصورة الرمزية حافظ الود
    الـعـضـوية
    11
    الإنـضـمـام
    Feb 2011
    الإقـــامـــة
    السعودية - القنفذة
    المشاركات
    1,796
    قدم شـكـره
    1,569 مرة
    تـم شـكـره
    1,907 مرة في 462 مشاركة

    HDTV : panasonic TH-P50V20 Monitor : benq Disc Player : sony BDP-S360 Multimedia Player : HTPC HTPC : i3 540 
foxconn H55MXV LE 
samsong DDR3 2X2
GT 430 Consoles : PS3 AV-Receiver : RX-V565 HT Speakers : front // NS50F
cen&surNS-P60 Subwoofer : YST-SW030

    رد: شرح برنامج MediaInfo برنامج مميز في معرفة تفاصيل الأفلام

    ما عاش من يزعلك


    ^^^

    يكسر الخاطر ..... صح

    على كل في نقطة مهمة بغيت رأيك فيها

    طبعا فيه موضوع استفسار ناوي على شاشة بإذن الله

    الموضوع الخاص بطلب شاشات في قسم الاستفسارات

    راح اضيف استفساري هناك

    وياليت لو تعطينا رايك

    طبعا قررت على v20

    لكن فيه نقطة متعلقة بالـ 24p

  11. #10
    Audiophile VideoChip عضو محترف الصورة الرمزية mks_95
    الـعـضـوية
    9
    الإنـضـمـام
    Feb 2011
    الإقـــامـــة
    السعودية
    المشاركات
    956
    قدم شـكـره
    439 مرة
    تـم شـكـره
    860 مرة في 212 مشاركة

    رد: شرح برنامج MediaInfo برنامج مميز في معرفة تفاصيل الأفلام

    أفا وأنا أحسب barooon اقنعك وخلاص خلاك تقرر على vt20 طلع الأخ شاتل دماغك على البروجكترات ..


    pm

    فيه واحد شغَال تعديل بالمنتدى ولا لقي وقت غير الحين لأن الكلمات مرة تصنف معاها small ومرة capital

  12. #11
    أبــو حـلـيـمـة عضو محترف الصورة الرمزية حافظ الود
    الـعـضـوية
    11
    الإنـضـمـام
    Feb 2011
    الإقـــامـــة
    السعودية - القنفذة
    المشاركات
    1,796
    قدم شـكـره
    1,569 مرة
    تـم شـكـره
    1,907 مرة في 462 مشاركة

    HDTV : panasonic TH-P50V20 Monitor : benq Disc Player : sony BDP-S360 Multimedia Player : HTPC HTPC : i3 540 
foxconn H55MXV LE 
samsong DDR3 2X2
GT 430 Consoles : PS3 AV-Receiver : RX-V565 HT Speakers : front // NS50F
cen&surNS-P60 Subwoofer : YST-SW030

    رد: شرح برنامج MediaInfo برنامج مميز في معرفة تفاصيل الأفلام

    بارون ما يقصر أبد

    وهو من الأشخاص اللي لهم الفضل بعد الله عز وجل في تبصيري بكثير من الأمور

    فكرة البروجكتر موجودة

    لكنها مؤجلة لعدة اسباب

  13. #12
    عضو جديد

    الـعـضـوية
    166
    الإنـضـمـام
    May 2011
    الإقـــامـــة
    السعودية - الرياض
    المشاركات
    2
    قدم شـكـره
    0 مرة
    تـم شـكـره
    0 مرة في 0 مشاركة

    رد: شرح برنامج MediaInfo برنامج مميز في معرفة تفاصيل الأفلام

    يعطيك العافية على البرنامج

    جاري التحميل والتجربة

  14. #13
    أبــو حـلـيـمـة عضو محترف الصورة الرمزية حافظ الود
    الـعـضـوية
    11
    الإنـضـمـام
    Feb 2011
    الإقـــامـــة
    السعودية - القنفذة
    المشاركات
    1,796
    قدم شـكـره
    1,569 مرة
    تـم شـكـره
    1,907 مرة في 462 مشاركة

    HDTV : panasonic TH-P50V20 Monitor : benq Disc Player : sony BDP-S360 Multimedia Player : HTPC HTPC : i3 540 
foxconn H55MXV LE 
samsong DDR3 2X2
GT 430 Consoles : PS3 AV-Receiver : RX-V565 HT Speakers : front // NS50F
cen&surNS-P60 Subwoofer : YST-SW030

    رد: شرح برنامج MediaInfo برنامج مميز في معرفة تفاصيل الأفلام

    الله يعطيك العافية يا غالي

    وبالتوفيق

إعلانات